Marvel's Avengers Deluxe Edition (супер цена) 159р. Внимание количество ограничено!!!

2 сезон

iTunes

iTunes

1

iTunes

iTunes

iTunes

WEBRip

iTunes

30
pack

Новость дня

ВАЖНО

!!Акция!!

Alien_RageХит недели

RePack

Horizon Zero Dawn

ИГРА 18+

pack

RePack

jed

!!Акция!!

Alien_Rage

RePack

fifa19

RePack

Assassins Creed: Odyssey

RePack

NEED FOR SPEED™ PAYBACK

4 сезон

9 сезон

Бесстыжие 9 сезон

Все сериалы

все сериалы на PB.wtf

RePack

FAR CRY 5
  

Напряги извилины / Get Smart (Питер Сигал / Peter Segal) [2008 г., Боевик, комедия, HDRip] [DUB] piratbit.org

Напряги извилины через торрент piratbit.org

Размер: 1.46 GB | Добавлен: 6 лет 8 мес. назад | Торрент скачан:393 раза
Скачать  

16-01-2014 19:15 Напряги извилины Скачать торрент  

Напряги извилины / Get Smart

Год выпуска: 2008
Страна: США
Жанр: Боевик, комедия
Продолжительность: 01:49:58
Перевод: Профессиональный (полное дублирование)
Русские субтитры: нет

Режиссер: Питер Сигал

В ролях: Стив Карелл, Энн Хэтэуэй, Дуэйн Джонсон, Алан Аркин, Теренс Стэмп, Терри Крюс, Дэвид Кёчнер, Джеймс Каан, Билл Мюррэй, Патрик Варберто

Описание: Ремейк комедийного сериала 60-х годов. Неуклюжие приёмы секретного агента Максвелла Смарта, взявшегося за обезвреживание группировки «Хаос», стремящейся к власти над миром, ставят операцию под угрозу. Во избежание провала командование прикрепляет к Смарту Агента 99...


Качество: HDRip [BDRip_1080]
Формат: AVI
Видео кодек: XviD
Аудио кодек: AC3
Видео: 720x400 (1.80:1), 23.976 fps, XviD MPEG-4 ~1569 kbps avg, 0.23 bit/pixel
Аудио: 48 kHz, AC3 Dolby Digital, 3/2 (L,C,R,l,r) + LFE ch, ~320.00 kbps avg
E:INTERNETNapragi.Izvilini.2008.avi
General
Complete name : E:INTERNETNapragi.Izvilini.2008.avi
Format : AVI
Format/Info : Audio Video Interleave
File size : 1.46 GiB
Duration : 1h 49mn
Overall bit rate : 1 899 Kbps
Writing application : VirtualDubMod 1.5.10.2 (build 2540/release)

Video #0
ID : 0
Format : MPEG-4 Visual
Format profile : Advanced Simple@L5
Format settings, BVOP : 1
Format settings, QPel : No
Format settings, GMC : No warppoints
Format settings, Matrix : Custom
Codec ID : XVID
Codec ID/Hint : XviD
Duration : 1h 49mn
Bit rate : 1 569 Kbps
Width : 720 pixels
Height : 400 pixels
Display aspect ratio : 16:9
Frame rate : 23.976 fps
Color space : YUV
Chroma subsampling : 4:2:0
Bit depth : 8 bits
Scan type : Progressive
Compression mode : Lossy
Bits/(Pixel*Frame) : 0.227
Stream size : 1.21 GiB (83%)
Writing library : XviD 1.2.1 (UTC 2008-12-04)
Audio #1
ID : 1
Format : AC-3
Format/Info : Audio Coding 3
Mode extension : CM (complete main)
Codec ID : 2000
Duration : 1h 49mn
Bit rate mode : Constant
Bit rate : 320 Kbps
Channel(s) : 6 channels
Channel positions : Front: L C R, Side: L R, LFE
Sampling rate : 48.0 KHz
Bit depth : 16 bits
Compression mode : Lossy
Stream size : 252 MiB (17%)
Alignment : Split accross interleaves
Interleave, duration : 42 ms (1.00 video frame)
Interleave, preload duration : 500 ms
piratbit.org



Скачать Напряги извилины через торрент http://i58.fastpic.ru/big/2014/0116/ee/636e84df54f64394605104f205ef43ee.jpg Скачать фильм Напряги извилины через торрент бесплантно в хорошем качестве Описание: Ремейк комедийного сериала 60-х годов. Неуклюжие приёмы секретного агента Максвелла Смарта, взявшегося за обезвреживание ... 9.6 10 10
Info! Золотая раздача, скачанное не засчитывается.
Торрент: Зарегистрирован [2014-01-16 19:15] · скачан: 393 раз
Статус: √ проверено
Размер: 1.46 GB
Как cкачать? Как скачать Напряги извилины через торрент | qTorrent

% Раздел Тема Автор DL S | L
Фильмы [HD 720p, 1080p] (Хороший звук DUB, MVO) [ 8.24 GB ] Напряги извилины / Get Smart [2008 ... BDRip ] M@RCU$ Скачать
1 | 0
Фильмы 2006-2008 [ 2.05 GB ] Напряги извилины / Get Smart [2008 HDRip лицензия] Lil Badun Скачать
1 | 0
Фильмы 2006-2008 [ 1.46 GB ] Напряги извилины. Брюс и Ллойд: Без тормозов / Get Smart's Bruce and Lloyd Out of Control [2008 BDRip] sniper224 Скачать
1 | 0

28-11-2019 20:33  

Отключить всю рекламу на сайте

17-01-2014 03:13 Напряги извилины Скачать торрент  

Норм комедия)piratbit.org



    Дорогой пользователь! Огромная просьба, поблагодарите релизера, оцените раздачу и оставьте свои комментарий, если Вы скачали Напряги извилины через торрент бесплатно! Внесите свою лепту в развитие PiratBit!
    Комментировать посты могут только пользователи прошедшие не сложную регистрацию
    Показать сообщения:    

    Напряги извилины через торрент
    Скачать бесплатно Напряги извилины
    Напряги извилины скачать торрент
    Напряги извилины смотреть онлайн
    Cкачать фильм Напряги извилины бесплатно
    Напряги извилины скачать торрент в хорошем качестве
    Напряги извилины смотреть онлайн бесплатно в хорошем качестве


    Вы не можете начинать темы
    Вы не можете отвечать на сообщения
    Вы не можете редактировать свои сообщения
    Вы не можете удалять свои сообщения
    Вы не можете голосовать в опросах
    Вы не можете прикреплять файлы к сообщениям
    Вы можете скачивать файлы