Мега распродажа FORZA HORIZON 4 ULTIMATE+ВСЕ DLC+ОНЛАЙН всего за 499р. 349 руб. (супер цена). Внимание количество ограничено!!!

Лицензия

30

iTunes

мы

iTunes

1

1 сезон

Чернобыль

1 сезон

Ральф против интернета

MVO

Покемон. Детектив Пикачу

8 сезон

Игра престолов

iTunes

1+1

ИГРА 18+

pack

ВАЖНО

!!Акция!!

Alien_RageХит недели

RePack

Resident Evil 21
pack

RePack

Metro:Exodus

!!Акция!!

Alien_Rage

RePack

fifa19

RePack

Assassins Creed: Odyssey

RePack

NEED FOR SPEED™ PAYBACK

3 сезон

9 сезон

Бесстыжие 9 сезон

Все сериалы

все сериалы на PB.wtf

RePack

FAR CRY 5
Ребята, катастрофически не хватает 2730р. для оплаты серверов за МАЙ (всвязи с блокировками трафик упал в 3 раза), 1-2р., выручайте.
  

Невероятный Халк / The Incredible Hulk (Луи Летерье) [2008, фантастика, боевик, триллер, DVDRip, MVO] Расширенная версия / Extended Cut piratbit.org

Невероятный Халк через торрент piratbit.org

Раздают: 1 [ 0 KB/s ]
Размер: 2.19 GB | Добавлен: 3 года 6 мес. назад | Торрент скачан:319 раз
Скачать  

23-04-2009 07:42 Невероятный Халк Скачать торрент  


Невероятный Халк / The Incredible Hulk
««В гневе он Вам не понравится!»»

ИНФОРМАЦИЯ:
Год выпуска:2008
Страна: США
Жанр: фантастика, боевик, триллер
Продолжительность: 02:25:21
Перевод: Любительский многоголосый (Несмертельное оружие)
Режиссер: Луи Летерье

В Ролях:


Эдвард Нортон (Bruce Banner), Лив Тайлер (Betty Ross), Тим Рот (Emil Blonsky), Уильям Хёрт (General «Thunderbolt» Ross), Тим Блейк Нельсон (Samuel Sterns), Тай Бурелл (Leonard), Кристина Кэбот (Major Kathleen Sparr), Питер Менса (General Joe Greller), Лу Ферриньо (The Incredible Hulk, озвучка), Пол Соулз (Stanley), Дебора Нассименту (Martina), Грег Брайк (Commando)

Описание:
История доктора Брюса Баннера, который ищет лекарство от своего необычного «заболевания», превращающего его во время эмоционального стресса в гигантского зеленого монстра Халка. Находясь в бегах от армии, стремящейся его захватить, Брюс почти находит лекарство, но все старания идут прахом, когда у Халка вдруг появляется новый, невероятно сильный противник.

  • Мировая премьера:6 июня 2008

    ТЕХ.ДАННЫЕ:
    Качество: DVDRip
    Формат: AVI
    Видео: XviD, 720x304 (2.35:1), 1673 kbps, 25 fps, 0,306 bpp
    Аудио №1: AC3 / 2.0 / 48 kHz / 192 kbps / | MVO
    Аудио №2: AC3 / 2.0 / 48 kHz / 192 kbps / | Original


    General
    Complete name : D:\Торенты\Incredible.Hulk.Extended.Cut.2008.DUAL.DVDRip.XviD.AC3.-ANTipiGo.avi
    Format : AVI
    Format/Info : Audio Video Interleave
    File size : 2.19 GiB
    Duration : 2h 25mn
    Overall bit rate : 2 153 Kbps
    Movie name : Невероятный Халк / The Incredible Hulk / Расширенная версия / Extended Cut
    Director : ANTipiGo
    Genre : Action/Thriller
    Writing application : VirtualDubMod 1.5.10.2 (build 2540/release)
    Original source form/Name : Movie
    Copyright : Творческая группа "Несмертельное оружие"

    Video
    ID : 0
    Format : MPEG-4 Visual
    Format profile : Advanced Simple@L5
    Format settings, BVOP : 1
    Format settings, QPel : No
    Format settings, GMC : No warppoints
    Format settings, Matrix : Default (MPEG)
    Codec ID : XVID
    Codec ID/Hint : XviD
    Duration : 2h 25mn
    Bit rate : 1 673 Kbps
    Width : 720 pixels
    Height : 304 pixels
    Display aspect ratio : 2.35:1
    Frame rate : 25.000 fps
    Color space : YUV
    Chroma subsampling : 4:2:0
    Bit depth : 8 bits
    Scan type : Progressive
    Compression mode : Lossy
    Bits/(Pixel*Frame) : 0.306
    Stream size : 1.70 GiB (78%)
    Writing library : XviD 63

    Audio #1
    ID : 1
    Format : AC-3
    Format/Info : Audio Coding 3
    Mode extension : CM (complete main)
    Codec ID : 2000
    Duration : 2h 25mn
    Bit rate mode : Constant
    Bit rate : 192 Kbps
    Channel(s) : 2 channels
    Channel positions : Front: L R
    Sampling rate : 48.0 KHz
    Bit depth : 16 bits
    Compression mode : Lossy
    Stream size : 200 MiB (9%)
    Alignment : Split accross interleaves
    Title : [RUS] MVO (Несмертельное оружие)

    Audio #2
    ID : 2
    Format : AC-3
    Format/Info : Audio Coding 3
    Mode extension : CM (complete main)
    Codec ID : 2000
    Duration : 2h 25mn
    Bit rate mode : Constant
    Bit rate : 192 Kbps
    Channel(s) : 2 channels
    Channel positions : Front: L R
    Sampling rate : 48.0 KHz
    Bit depth : 16 bits
    Compression mode : Lossy
    Stream size : 200 MiB (9%)
    Alignment : Split accross interleaves
    Title : [ENG] Original
    Скриншоты:

    © Оформление by .::Ворон::.
    piratbit.org



  • Скачать Невероятный Халк через торрент http://pic.kartinco.top/images/6/ordi9.jpg Скачать фильм Невероятный Халк через торрент бесплантно в хорошем качестве Описание: История доктора Брюса Баннера, который ищет лекарство от своего необычного «заболевания», превращающего его во время ... 8.7 10 12
    Торрент: Зарегистрирован [2015-11-30 21:33] · скачан: 319 раз
    Статус: √ проверено
    Размер: 2.19 GB
    Как cкачать? Как скачать Невероятный Халк через торрент | qTorrent



    Последний раз редактировалось: DEVI (2015-11-30 21:36), всего редактировалось 4 раз(а)


    >> Регистрируемся здесь <<






    Отзывы и комментарии о схеме читаем и пишем здесь: ---> Отзывы и комментарии о схеме

    Новые благодарочки в телеграм довольных пользователей:
    скриншот   скриншот   скриншот   скриншот   скриншот

    13-02-2011 14:02 Невероятный Халк Скачать торрент  

    Прикольний фильмpiratbit.org



    30-11-2015 23:22 Невероятный Халк Скачать торрент  

    года выпуска нету в топикеpiratbit.org



    01-12-2015 04:09 Невероятный Халк Скачать торрент  

    Насколько я знаю, но расширенная версия идёт 02:25:21 и озвучка от (Несмертельное оружие)piratbit.org



    02-12-2015 16:14 Невероятный Халк Скачать торрент  

    Клевый кинчелоpiratbit.org



    07-03-2018 13:33 Невероятный Халк Скачать торрент  

    Дайте Скорости!!!!piratbit.org



      Дорогой пользователь! Огромная просьба, поблагодарите релизера, оцените раздачу и оставьте свои комментарий, если Вы скачали Невероятный Халк через торрент бесплатно! Внесите свою лепту в развитие PiratBit!
      Комментировать посты могут только пользователи прошедшие не сложную регистрацию
      Показать сообщения:    

      Невероятный Халк через торрент
      Скачать бесплатно Невероятный Халк
      Невероятный Халк скачать торрент
      Невероятный Халк смотреть онлайн
      Cкачать фильм Невероятный Халк бесплатно
      Невероятный Халк скачать торрент в хорошем качестве
      Невероятный Халк смотреть онлайн бесплатно в хорошем качестве


      Вы не можете начинать темы
      Вы не можете отвечать на сообщения
      Вы не можете редактировать свои сообщения
      Вы не можете удалять свои сообщения
      Вы не можете голосовать в опросах
      Вы не можете прикреплять файлы к сообщениям
      Вы можете скачивать файлы