Достать ножи: Стеклянная луковица

MVO

Добыча

Дубляж

Уэнсдэй

1 сезон

Тор

Дубляж

13 клиническая

1 сезон

Жестокая ночь

MVO

Одни из нас

1 сезон

Deluxe

pack

Рекомендуем

30

Пиратка

ВАЖНО

ВАЖНО

Ghostwire

Пиратка

jed

RePack

nioh2

RePack

RDR2

RePack

NEED FOR SPEED™ PAYBACK

RePack

скачать торрент

Кинопоиск HD

Острые козырьки 6 сезон

6 сезон

FAR CRY 6

RePack

скачать торрент

Лицензия

скачать торрент

MVO

1

1 сезон

скачать торрент

1 сезон

скачать торрент

Лицензия

  

Покидая Лас-Вегас / Leaving Las Vegas (Майк Фиггис / Mike Figgis) [1995 г., драма, мелодрама, BDRemux] DVO + AVO (Карцев, Багичев)

Покидая Лас-Вегас через торрент piratbit.org

Размер: 17.23 GB | Добавлен: 9 лет назад | Торрент скачан:27 раз
Смотреть онлайн | Скачать | Поддержите нас   

18-01-2014 21:32 Покидая Лас-Вегас Скачать торрент  


Покидая Лас-Вегас / Leaving Las Vegas


Год выпуска:1995
Страна:США
Жанр:драма, мелодрама

Продолжительность: 01:51:25
Перевод:Профессиональный (двухголосый)R5+ AVO (Карцев, Багичев)

Субтитры: Английские,Русские
Режиссер:Майк Фиггис / Mike Figgis
В ролях:Николас Кейдж (Ben Sanderson), Элизабет Шу (Sera), Джулиан Сэндс (Yuri), Ричард Льюис (Peter), Стивен Уэбер (Marc Nussbaum), Валерия Голино (Terri), Эмили Проктер (Debbie), Стюарт Реген (Man At Bar), Ким Эдамс (Sheila), Грэм Беккел (L.A. Bartender), Аль Хендерсон (Man at Strip Bar), Шаши Бхатия (Hispanic Prostitute)
  • Описание:
    Если вся жизнь кажется кошмаром. Если затяжной запой окончательно разрушил карьеру в серьезной фирме. Может быть, есть смысл уничтожить все, что связывало тебя с прошлой жизнью и начать новую? В блестящем и грешном Лас-Вегасе.
    Где среди блеска ночной жизни одинокая «ночная бабочка» может оказаться внимательнее и сердечнее любого психоаналитика. Потому что она захочет спасти несчастного пропойцу от него самого... Сможет ли эта странная любовь помочь обоим? Или - погубить обоих?


    Качество:BD Remux
    Формат:MKV
    Видео кодек:VC-1 Video
    Аудио кодек:DTS
    Видео: VC-1 Video 20637 kbps 1 920 х1080p / 23.976 fps / 16:9 / Advanced Profile 3
    Аудио #1 Dolby Digital Audio Russian 2.0 / 48 kHz / 192 kbps [R5]
    Аудио #2 Russian-Dolby Digital Audio Russian 2.0 / 48 kHz / 192 kbps [Багичев]
    Аудио #3 Dolby Digital Audio Russian 2.0 / 48 kHz / 192 kbps [Карцев]
    Аудио #4 DTS-HD Master Audio English 2.0 / 48 kHz / 924 kbps / 16-bit (DTS Core: 2.0 / 48 kHz / 768 kbps / 16-bit)

Код:

General
UniqueID : 250558905943235717718036789163576714437 (0xBC7FE3D5A8362ADBAB2827A2462AE4C5)
Complete name : J:Leaving.Las.Vegas.1995.1080p.Bluray.VC1.Remux.mkv
Format : Matroska
File size : 17.2 GiB
Duration : 1h 51mn
Overall bit rate : 22.1 Mbps
Movie name : Leaving.Las.Vegas.1995.1080p.Bluray.VC1.Remux
Encoded date : UTC 2011-03-21 09:12:58
Writing application : mkvmerge v3.2.0 ('Beginnings') built on Feb 12 2010 16:46:17
Writing library : libebml v0.7.9 + libmatroska v0.8.1
Video
ID : 1
Format : VC-1
Format profile : AP@L3
Codec ID : WVC1
Codec ID/Hint : Microsoft
Duration : 1h 51mn
Width : 1 920 pixels
Height : 1 080 pixels
Display aspect ratio : 16:9
Frame rate : 23.976 fps
Chroma subsampling : 4:2:0
Bit depth : 8 bits
Scan type : Progressive
Compression mode : Lossy
Title : uralmix
Audio #1
ID : 2
Format : AC-3
Format/Info : Audio Coding 3
Mode extension : CM (complete main)
Codec ID : A_AC3
Duration : 1h 51mn
Bit rate mode : Constant
Bit rate : 192 Kbps
Channel(s) : 2 channels
Channel positions : Front: L R
Sampling rate : 48.0 KHz
Bit depth : 16 bits
Compression mode : Lossy
Stream size : 153 MiB (1%)
Title : R5
Language : Russian
Audio #2
ID : 3
Format : AC-3
Format/Info : Audio Coding 3
Mode extension : CM (complete main)
Codec ID : A_AC3
Duration : 1h 51mn
Bit rate mode : Constant
Bit rate : 192 Kbps
Channel(s) : 2 channels
Channel positions : Front: L R
Sampling rate : 48.0 KHz
Bit depth : 16 bits
Compression mode : Lossy
Stream size : 153 MiB (1%)
Title : авторский - Алексей Багичев
Language : Russian
Audio #3
ID : 4
Format : AC-3
Format/Info : Audio Coding 3
Mode extension : CM (complete main)
Codec ID : A_AC3
Duration : 1h 51mn
Bit rate mode : Constant
Bit rate : 192 Kbps
Channel(s) : 2 channels
Channel positions : Front: L R
Sampling rate : 48.0 KHz
Bit depth : 16 bits
Compression mode : Lossy
Stream size : 153 MiB (1%)
Title : авторский - Петр Карцев
Language : Russian
Audio #4
ID : 5
Format : DTS
Format/Info : Digital Theater Systems
Format profile : MA
Codec ID : A_DTS
Duration : 1h 51mn
Bit rate mode : Variable
Channel(s) : 2 channels
Channel positions : Front: L R
Sampling rate : 48.0 KHz
Bit depth : 16 bits
Compression mode : Lossy
Title : english
Language : English
Text #1
ID : 6
Format : UTF-8
Codec ID : S_TEXT/UTF8
Codec ID/Info : UTF-8 Plain Text
Language : Russian
Text #2
ID : 7
Format : UTF-8
Codec ID : S_TEXT/UTF8
Codec ID/Info : UTF-8 Plain Text
Language : English


Скриншоты:

Трейлеры к фильмам [2014]



Скачать Покидая Лас-Вегас через торрент http://i17.fastpic.ru/big/2011/0313/61/40ee5a6971f3b74b62c2f0e9ea2ffa61.gif Скачать, смотреть онлайн Покидая Лас-Вегас бесплантно в хорошем качестве Описание:Если вся жизнь кажется кошмаром. Если затяжной запой окончательно разрушил карьеру в серьезной фирме. Может быть, есть смысл ... 10 10 2
Info! Золотая раздача, скачанное не засчитывается.
Торрент: Зарегистрирован [2014-01-18 21:32] · скачан: 27 раз
Статус: √ проверено
Размер: 17.23 GB
Как cкачать? Как скачать Покидая Лас-Вегас через торрент | UTorrent

% Раздел Тема Автор DL S | L
Фильмы [HD 720p, 1080p] (Хороший звук DUB, MVO) [ 9.28 GB ] Покидая Лас-Вегас / Leaving Las Vegas | AVO + Original + Sub | 720p от _denis_100 / NNNB _denis_100 Скачать
1 | 0
Фильмы до 2000 г. [ 2.44 GB ] Покидая Лас-Вегас / Leaving Las Vegas | MVO | BDRip,MVO,AVO [A.Bagichev Assasinca Скачать
1 | 0
Фильмы до 2000 г. [ 2.19 GB ] Покидая Лас-Вегас / Leaving Las Vegas | | BDRip -=BIGBOSS=- Скачать
2 | 0

28-11-2019 20:33  


Отключить вcю реклaмy на сайте, в т.ч. и в плеере онлайн просмотра!

    Дорогой пользователь! Огромная просьба, поблагодарите релизера, оцените раздачу и оставьте свои комментарий, если Вы скачали Покидая Лас-Вегас через торрент бесплатно!!
    Комментировать посты могут только пользователи прошедшие не сложную регистрацию
    Показать сообщения:    


    Покидая Лас-Вегас через торрент
    Скачать бесплатно Покидая Лас-Вегас
    Покидая Лас-Вегас скачать торрент
    Покидая Лас-Вегас смотреть онлайн
    Cкачать фильм Покидая Лас-Вегас бесплатно
    Покидая Лас-Вегас скачать торрент в хорошем качестве
    Покидая Лас-Вегас смотреть онлайн бесплатно в хорошем качестве
    Вы не можете начинать темы
    Вы не можете отвечать на сообщения
    Вы не можете редактировать свои сообщения
    Вы не можете удалять свои сообщения
    Вы не можете голосовать в опросах
    Вы не можете прикреплять файлы к сообщениям
    Вы можете скачивать файлы
    Покидая Лас-Вегас / Leaving Las Vegas [1995 г., драма, мелодрама, BDRemux] DVO + AVO смотреть онлайн, скачать торрент picoco.icu