Достать ножи: Стеклянная луковица

MVO

Добыча

Дубляж

Уэнсдэй

1 сезон

Тор

Дубляж

13 клиническая

1 сезон

Жестокая ночь

MVO

Одни из нас

1 сезон

Deluxe

pack

Рекомендуем

30

Пиратка

ВАЖНО

ВАЖНО

Ghostwire

Пиратка

jed

RePack

nioh2

RePack

RDR2

RePack

NEED FOR SPEED™ PAYBACK

RePack

скачать торрент

Кинопоиск HD

Острые козырьки 6 сезон

6 сезон

FAR CRY 6

RePack

скачать торрент

Лицензия

скачать торрент

MVO

1

1 сезон

скачать торрент

1 сезон

скачать торрент

Лицензия

  

Железная хватка / True Grit (Итан Коэн / Ethan Coen, Джоэл Коэн / Joel Coen) [2010, США, драма, приключения, вестерн, BD Remux] Дубляж + Ukr + 4xAVO + DVO + Sub

Железная хватка через торрент piratbit.org

Размер: 30.25 GB | Добавлен: 9 лет назад | Торрент скачан:72 раза
Смотреть онлайн | Скачать | Поддержите нас   

19-01-2014 20:40 Железная хватка Скачать торрент  

Железная хватка / True Grit
«Расплата наступит»
Год выпуска: 2010
Страна: США
Жанр: драма, приключения, вестерн
Продолжительность: 01:50:20
Перевод:
|Профессиональный (полное дублирование)|
|Авторский (одноголосый, закадровый) , Д, «Гоблин» Пучков|
|Авторский (одноголосый, закадровый) , Ю.Сербин|
|Авторский (одноголосый, закадровый), А.Гаврилов|
|Авторский (одноголосый, закадровый) , В.Назаров|
|Профессиональный (двухголосый, закадровый) , OzzTV|
Субтитры: Русские, украинские, английские
Режиссер: Итан Коэн / Ethan Coen, Джоэл Коэн / Joel Coen
В ролях: Джефф Бриджес (Rooster Cogburn), Хейли Стайнфелд (Mattie Ross), Мэтт Дэймон (LaBoeuf), Джош Бролин (Tom Chaney), Барри Пеппер (Lucky Ned Pepper), Дэкин Мэтьюз (Col. Stonehill), Ярлат Конрой (Undertaker), Пол Рэй (Emmett Quincy), Донал Глисон (Moon (The Kid)), Элизабет Марвел (40-Year-Old Mattie), Рой Ли Джонс (Yarnell), Эд Корбин (Bear Man)
Описание:
В этом фильме рассказывается история 14-летней девочки, стареющего судебного пристава Рустера Когберна и ещё одного законника. Вместе они идут по следам убийцы отца девочки, которые ведут во враждебную индейскую территорию.
Рейтинг


MPAA: PG-13 - Детям до 13 лет просмотр не желателен

Качество: BD Remux
Формат: MKV
Видео кодек: AVC
Аудио кодек: AC3 / DTS
Видео: AVC, 1920x1080, 30,5 Мбит/с, 23,976 fps
Аудио 1: Русский (AC3, 6 ch, 640 Кбит/с, 48,0 КГц) Дублированный Blu-ray
Аудио 2: Украинский (AC3, 6 ch, 448 Кбит/с, 48,0 КГц) Дублированный R5
Аудио 3: Русский (AC3, 6 ch, 448 Кбит/с, 48,0 КГц) Двухголосый OzzTV
Аудио 4: Русский (AC3, 6 ch, 448 Кбит/с, 48,0 КГц) Д, «Гоблин» Пучков / VoiceRipHQ)
Аудио 5: Русский (DTS, 6 ch, 1510 Кбит/с, 48,0 КГц) Ю.Сербин
Аудио 6: Русский (DTS, 6 ch, 1510 Кбит/с, 48,0 КГц) А.Гаврилов
Аудио 7: Русский (DTS, 6 ch, 1510 Кбит/с, 48,0 КГц) В.Назаров
Аудио 8: английский (DTS, 6 ch, 1510 Кбит/с, 48 КГц)

Оформление: Messa-fan
Доп. инфо: VoiceRipHQ Гоблина сделан из диктофонной записи
Общее
Уникальный идентификатор : 190305259514581002097899973963799685867 (0x8F2B75B49FB602ECAFF8B98C62856AEB)
Полное имя : Zheleznaya.Hvatka.2010.BD-Remux 1080p.mkv
Формат : Matroska
Версия формата : Version 2
Размер файла : 30,3 Гбайт
Продолжительность : 1 ч. 50 м.
Режим общего битрейта : Переменный
Общий поток : 39,3 Мбит/сек
Название фильма : Железная хватка / True Grit (2010) BD-Remux 1080p
Дата кодирования : UTC 2014-01-15 16:45:18
Программа кодирования : mkvmerge v5.8.0 ('No Sleep / Pillow') built on Sep 2 2012 15:37:04
Библиотека кодирования : libebml v1.2.3 + libmatroska v1.3.0

Видео
Идентификатор : 1
Формат : AVC
Формат/Информация : Advanced Video Codec
Профиль формата : High@L4.1
Параметр CABAC формата : Да
Параметр ReFrames формата : 4 кадра
Идентификатор кодека : V_MPEG4/ISO/AVC
Продолжительность : 1 ч. 50 м.
Вид битрейта : Переменный
Битрейт : 30,5 Мбит/сек
Максимальный битрейт : 34,0 Мбит/сек
Ширина : 1920 пикселей
Высота : 1080 пикселей
Соотношение сторон : 16:9
Режим частоты кадров : Постоянный
Частота кадров : 23,976 кадра/сек
Цветовое пространство : YUV
Субдискретизация насыщенности : 4:2:0
Битовая глубина : 8 бит
Тип развёртки : Прогрессивная
Бит/(Пиксели*Кадры) : 0.612
Размер потока : 23,5 Гбайт (78%)
Язык : English
Default : Да
Forced : Нет
Основные цвета : BT.709
Характеристики трансфера : BT.709
Коэффициенты матрицы : BT.709

Аудио #1
Идентификатор : 2
Формат : AC-3
Формат/Информация : Audio Coding 3
Расширение режима : CM (complete main)
Параметр Endianness формата : Big
Идентификатор кодека : A_AC3
Продолжительность : 1 ч. 50 м.
Вид битрейта : Постоянный
Битрейт : 640 Кбит/сек
Каналы : 6 каналов
Расположение каналов : Front: L C R, Side: L R, LFE
Частота : 48,0 КГц
Битовая глубина : 16 бит
Метод сжатия : С потерями
Размер потока : 505 Мбайт (2%)
Заголовок : Дубляж (Blu-ray)
Язык : Russian
Default : Да
Forced : Нет

Аудио #2
Идентификатор : 3
Формат : AC-3
Формат/Информация : Audio Coding 3
Расширение режима : CM (complete main)
Параметр Endianness формата : Big
Идентификатор кодека : A_AC3
Продолжительность : 1 ч. 50 м.
Вид битрейта : Постоянный
Битрейт : 448 Кбит/сек
Каналы : 6 каналов
Расположение каналов : Front: L C R, Side: L R, LFE
Частота : 48,0 КГц
Битовая глубина : 16 бит
Метод сжатия : С потерями
Размер потока : 354 Мбайт (1%)
Заголовок : Дубляж (R5)
Язык : Ukrainian
Default : Нет
Forced : Нет

Аудио #3
Идентификатор : 4
Формат : AC-3
Формат/Информация : Audio Coding 3
Расширение режима : CM (complete main)
Параметр Endianness формата : Big
Идентификатор кодека : A_AC3
Продолжительность : 1 ч. 50 м.
Вид битрейта : Постоянный
Битрейт : 448 Кбит/сек
Каналы : 6 каналов
Расположение каналов : Front: L C R, Side: L R, LFE
Частота : 48,0 КГц
Битовая глубина : 16 бит
Метод сжатия : С потерями
Размер потока : 354 Мбайт (1%)
Заголовок : MVO (OzzTV)
Default : Нет
Forced : Нет

Аудио #4
Идентификатор : 5
Формат : AC-3
Формат/Информация : Audio Coding 3
Расширение режима : CM (complete main)
Параметр Endianness формата : Big
Идентификатор кодека : A_AC3
Продолжительность : 1 ч. 50 м.
Вид битрейта : Постоянный
Битрейт : 448 Кбит/сек
Каналы : 6 каналов
Расположение каналов : Front: L C R, Side: L R, LFE
Частота : 48,0 КГц
Битовая глубина : 16 бит
Метод сжатия : С потерями
Размер потока : 354 Мбайт (1%)
Заголовок : AVO (Д, «Гоблин» Пучков / VoiceRipHQ)
Язык : Russian
Default : Нет
Forced : Нет

Аудио #5
Идентификатор : 6
Формат : DTS
Формат/Информация : Digital Theater Systems
Режим : 16
Параметр Endianness формата : Big
Идентификатор кодека : A_DTS
Продолжительность : 1 ч. 50 м.
Вид битрейта : Постоянный
Битрейт : 1510 Кбит/сек
Каналы : 6 каналов
Расположение каналов : Front: L C R, Side: L R, LFE
Частота : 48,0 КГц
Битовая глубина : 24 бит
Метод сжатия : С потерями
Размер потока : 1,16 Гбайт (4%)
Заголовок : AVO (Ю.Сербин)
Язык : Russian
Default : Нет
Forced : Нет

Аудио #6
Идентификатор : 7
Формат : DTS
Формат/Информация : Digital Theater Systems
Режим : 16
Параметр Endianness формата : Big
Идентификатор кодека : A_DTS
Продолжительность : 1 ч. 50 м.
Вид битрейта : Постоянный
Битрейт : 1509 Кбит/сек
Каналы : 6 каналов
Расположение каналов : Front: L C R, Side: L R, LFE
Частота : 48,0 КГц
Битовая глубина : 24 бит
Метод сжатия : С потерями
Размер потока : 1,16 Гбайт (4%)
Заголовок : AVO (А.Гаврилов)
Язык : Russian
Default : Нет
Forced : Нет

Аудио #7
Идентификатор : 8
Формат : DTS
Формат/Информация : Digital Theater Systems
Режим : 16
Параметр Endianness формата : Big
Идентификатор кодека : A_DTS
Продолжительность : 1 ч. 50 м.
Вид битрейта : Постоянный
Битрейт : 1509 Кбит/сек
Каналы : 6 каналов
Расположение каналов : Front: L C R, Side: L R, LFE
Частота : 48,0 КГц
Битовая глубина : 24 бит
Метод сжатия : С потерями
Размер потока : 1,16 Гбайт (4%)
Заголовок : AVO (В.Назаров)
Язык : Russian
Default : Нет
Forced : Нет

Аудио #8
Идентификатор : 9
Формат : DTS
Формат/Информация : Digital Theater Systems
Режим : 16
Параметр Endianness формата : Big
Идентификатор кодека : A_DTS
Продолжительность : 1 ч. 50 м.
Вид битрейта : Постоянный
Битрейт : 1509 Кбит/сек
Каналы : 6 каналов
Расположение каналов : Front: L C R, Side: L R, LFE
Частота : 48,0 КГц
Битовая глубина : 24 бит
Метод сжатия : С потерями
Размер потока : 1,16 Гбайт (4%)
Заголовок : Original
Язык : English
Default : Нет
Forced : Нет

Текст #1
Идентификатор : 10
Формат : PGS
Режим смешивания : zlib
Идентификатор кодека : S_HDMV/PGS
Идентификатор кодека/Информация : The same subtitle format used on BDs/HD-DVDs
Default : Да
Forced : Нет

Текст #2
Идентификатор : 11
Формат : PGS
Режим смешивания : zlib
Идентификатор кодека : S_HDMV/PGS
Идентификатор кодека/Информация : The same subtitle format used on BDs/HD-DVDs
Default : Нет
Forced : Нет

Текст #3
Идентификатор : 12
Формат : PGS
Режим смешивания : zlib
Идентификатор кодека : S_HDMV/PGS
Идентификатор кодека/Информация : The same subtitle format used on BDs/HD-DVDs
Default : Нет
Forced : Нет

Текст #4
Идентификатор : 13
Формат : PGS
Режим смешивания : zlib
Идентификатор кодека : S_HDMV/PGS
Идентификатор кодека/Информация : The same subtitle format used on BDs/HD-DVDs
Default : Нет
Forced : Нет

Текст #5
Идентификатор : 14
Формат : PGS
Режим смешивания : zlib
Идентификатор кодека : S_HDMV/PGS
Идентификатор кодека/Информация : The same subtitle format used on BDs/HD-DVDs
Default : Нет
Forced : Нет

Оскар, 2011 год
Номинации (10):
Лучший фильм
Лучшая мужская роль (Джефф Бриджес)
Лучшая женская роль второго плана (Хейли Стайнфелд)
Лучший режиссер (Итан Коэн, Джоэл Коэн)
Лучший адаптированный сценарий
Лучшая работа оператора
Лучшие декорации
Лучшие костюмы
Лучший звук
Лучший монтаж звука

Премия канала «MTV», 2011 год
Номинации (1):
Прорыв года (Хейли Стайнфелд)

Британская академия, 2011 год
Победитель (1):
Лучшая работа оператора (Роджер Дикинс)
Номинации (7):
Лучший фильм
Лучшая мужская роль (Джефф Бриджес)
Лучшая женская роль (Хейли Стайнфелд)
Лучший адаптированный сценарий
Лучшие костюмы
Лучший звук
Лучшая работа художника-постановщика (Джесс Гончор, Нэнси Хэй)

Сатурн, 2011 год
Номинации (2):
Лучший молодой актер/актриса (Хейли Стайнфелд)
Лучший приключенческий фильм или боевик

Премия Гильдии актеров, 2011 год
Номинации (2):
Лучшая мужская роль (Джефф Бриджес)
Лучшая женская роль второго плана (Хейли Стайнфелд)
  • Фильм снят по мотивам романа Чарльза Портиса «Железная хватка» (True Grit, 1968).
  • Дж. К. Симмонс озвучил Нобла Дэггетта, адвоката Мэтти.
  • Рустеру Когберну около 40 лет, однако и Джону Уэйну и Джеффу Бриджесу было за шестьдесят, когда они сыграли роль.
  • Майкл Бьен проходил пробы на роль Нэда Пэппера.
  • Джефф Бриджес и Джош Бролин сыграли Дикого Билла Хикока в фильмах «Дикий Билл» (1995) и «Молодые наездники» (1989) соответственно.
  • Один из немногих фильмов, спродюссированный Стивеном Спилбергом, в начале которого не появляется заставка компании «Amblin Entertainment» или «DreamWorks Pictures».
  • В фильме «Настоящее мужество» (1969) Рустер Когберн носит повязку на левом глазе. В ремейке повязка надета на правый глаз.



  • Скачать Железная хватка через торрент http://i6-imageban-ru.translate.goog/out/2014/01/20/faec208c6a927965793586bf50442860.jpg Скачать, смотреть онлайн Железная хватка бесплантно в хорошем качестве Описание: В этом фильме рассказывается история 14-летней девочки, стареющего судебного пристава Рустера Когберна и ещё одного законника. ... 10 10 5
    Info! Золотая раздача, скачанное не засчитывается.
    Торрент: Зарегистрирован [2014-01-19 20:41] · скачан: 72 раз
    Статус: √ проверено
    Размер: 30.25 GB
    Как cкачать? Как скачать Железная хватка через торрент | UTorrent

    28-11-2019 20:33  


    Отключить вcю реклaмy на сайте, в т.ч. и в плеере онлайн просмотра!

    19-01-2014 22:33 Железная хватка Скачать торрент  

    Великолепный фильм, посмотрел с удовольствием хотя и не поклонник вестернов...



    20-01-2014 03:01 Железная хватка Скачать торрент  

    Согласен зачетный фильм



    20-01-2014 03:41 Железная хватка Скачать торрент  

    фильм стоит посмотреть.

    Messa-fan, есть чуть полегче в весе (10-15 Gb), но с такой озвучкой?



    20-01-2014 09:49 Железная хватка Скачать торрент  

    ТаможеНик
    есть 720p (~11Гб), но состав озвучек там нет Пучкова



    23-01-2014 04:48 Железная хватка Скачать торрент  

    Messa-fan, спасибо за труды, фильм в коллекцию



      Дорогой пользователь! Огромная просьба, поблагодарите релизера, оцените раздачу и оставьте свои комментарий, если Вы скачали Железная хватка через торрент бесплатно!!
      Комментировать посты могут только пользователи прошедшие не сложную регистрацию
      Показать сообщения:    


      Железная хватка через торрент
      Скачать бесплатно Железная хватка
      Железная хватка скачать торрент
      Железная хватка смотреть онлайн
      Cкачать фильм Железная хватка бесплатно
      Железная хватка скачать торрент в хорошем качестве
      Железная хватка смотреть онлайн бесплатно в хорошем качестве
      Вы не можете начинать темы
      Вы не можете отвечать на сообщения
      Вы не можете редактировать свои сообщения
      Вы не можете удалять свои сообщения
      Вы не можете голосовать в опросах
      Вы не можете прикреплять файлы к сообщениям
      Вы можете скачивать файлы
      Железная хватка / True Grit [2010, США, драма, приключения, вестерн, BD Remux] Дубляж + Ukr + 4xAVO + DVO + Sub смотреть онлайн, скачать торрент picoco.icu