Доктор Стрэндж

Лицензия

Добыча

Дубляж

Дом дракона

1 сезон

Тор

Дубляж

В эфире

Дубляж

Там, где раки поют

MVO

Властелин колец

1 сезон

Ultimate

pack

Рекомендуем

30

Пиратка

ВАЖНО

ВАЖНО

Ghostwire

Пиратка

jed

RePack

nioh2

RePack

RDR2

RePack

NEED FOR SPEED™ PAYBACK

RePack

скачать торрент

Кинопоиск HD

Острые козырьки 6 сезон

6 сезон

FAR CRY 6

RePack

скачать торрент

Лицензия

скачать торрент

MVO

1

1 сезон

скачать торрент

1 сезон

скачать торрент

Лицензия

  

Тебе конец! / You're Next (Адам Вингард / Adam Wingard) [ 2013 , США , ужасы, триллер, комедия , BDRip 720p ] VO

Тебе конец! через торрент piratbit.org

Размер: 4.5 GB | Добавлен: 8 лет 10 мес. назад | Торрент скачан:73 раза
Смотреть онлайн | Скачать   

20-01-2014 07:06 Тебе конец! Скачать торрент  

Тебе конец! / You're Next

«Вы уверены, что закрыли дверь?»

  • Год выпуска:2013
  • Страна:США
  • Жанр:ужасы, триллер, комедия

  • Продолжительность: 01:36:34
  • Перевод:Любительский (одноголосый)[Xixidok]

  • Субтитры: Нет
    • Режиссер:Адам Вингард / Adam Wingard
    • Сценарий: Саймон Баррет / Simon Barrett
    • Продюсер: Саймон Баррет / Simon Barrett, Кит Калдер / Keith Calder, Ким Шерман / Kim Sherman, Джессика Ву / Jessica Wu, Крис Хардинг / Chris Harding

  • В ролях:Шарни Винсон (Erin), Николас Туччи (Felix), Венди Гленн (Zee), Эй Джей Боуэн (Crispian), Джо Сванберг (Drake), Барбара Крэмптон (Aubrey), Роб Моран (Paul), Маргарет Лэни (Kelly), Эми Саймец (Aimee), Тай Уэст (Tariq), Коллинз Холт (Lamb Mask), Саймон Баррет (Tiger Mask)
    • Описание:
      Банда маньяков в звериных масках, вооруженных топорами и арбалетами, вторгается в загородный дом семьи Дэвисон. Жертвы оказываются в западне... Неожиданно среди них находится один достойный противник, способный дать отпор убийцам.

    Премьера (РФ):29 августа 2013 / Мировая премьера:10 сентября 2011
    • Качество:BDRip 720p
    • Формат:MKV
    • Видео кодек: AVC
    • Аудио кодек:DTS,AC3
    • Видео: 4964 kb/s, 1280x536,23,976 кадр/сек
    • Аудио: AC3 / 2.0 / 48 kHz / 192 kbps / 16 bit
    • Aудио #2: DTS, 48,0 КHz, 5.1, 1510 Kbit/s - Aнглийский


    Код:

    бщее
    Уникальный идентификатор : 200807541219546470203939871184371544554 (0x9712202BDDD3CD9EB6A4D1945F2371EA)
    Полное имя : D:ТоррентыТебе конец.2013.BDRip.720p.mkv
    Формат : Matroska
    Размер файла : 4,50 Гбайт
    Продолжительность : 1 ч. 36 м.
    Общий поток : 6665 Кбит/сек
    Дата кодирования : UTC 2014-01-04 13:27:11
    Программа кодирования : mkvmerge v6.1.0 ('Old Devil') built on Mar 4 2013 09:10:42
    Библиотека кодирования : libebml v1.3.0 + libmatroska v1.4.0

    Видео
    Идентификатор : 1
    Формат : AVC
    Формат/Информация : Advanced Video Codec
    Профиль формата : High@L4.1
    Параметр CABAC формата : Да
    Параметр ReFrames формата : 5 кадров
    Параметры GOP формата : M=4, N=44
    Идентификатор кодека : V_MPEG4/ISO/AVC
    Продолжительность : 1 ч. 36 м.
    Битрейт : 4964 Кбит/сек
    Ширина : 1280 пикс.
    Высота : 536 пикс.
    Соотношение сторон : 2,35:1
    Частота кадров : 23,976 кадр/сек
    Цветовое пространство : YUV
    Подвыборка цветности : 4:2:0
    Битовая глубина : 8 бит
    Тип развёртки : Прогрессивная
    Бит/(Пиксели*Кадры) : 0.302
    Размер потока : 3,26 Гбайт (72%)
    Библиотека кодирования : x264 core 140 r2377 1ca7bb9
    Настройки программы : cabac=1 / ref=5 / deblock=1:0:0 / analyse=0x3:0x133 / me=umh / subme=7 / psy=1 / psy_rd=1.00:0.00 / mixed_ref=1 / me_range=16 / chroma_me=1 / trellis=1 / 8x8dct=1 / cqm=0 / deadzone=21,11 / fast_pskip=0 / chroma_qp_offset=-2 / threads=16 / lookahead_threads=2 / sliced_threads=0 / nr=0 / decimate=1 / interlaced=0 / bluray_compat=0 / constrained_intra=0 / bframes=3 / b_pyramid=2 / b_adapt=1 / b_bias=0 / direct=1 / weightb=1 / open_gop=0 / weightp=2 / keyint=240 / keyint_min=23 / scenecut=40 / intra_refresh=0 / rc_lookahead=40 / rc=2pass / mbtree=1 / bitrate=4964 / ratetol=1.0 / qcomp=0.60 / qpmin=0 / qpmax=69 / qpstep=4 / cplxblur=20.0 / qblur=0.5 / ip_ratio=1.40 / aq=1:1.00
    Язык : English

    Аудио #1
    Идентификатор : 2
    Формат : AC-3
    Формат/Информация : Audio Coding 3
    Расширение режима : CM (complete main)
    Идентификатор кодека : A_AC3
    Продолжительность : 1 ч. 36 м.
    Вид битрейта : Постоянный
    Битрейт : 192 Кбит/сек
    Каналы : 2 канала
    Расположение каналов : Front: L R
    Частота : 48,0 КГц
    Битовая глубина : 16 бит
    Метод сжатия : С потерями
    Размер потока : 133 Мбайт (3%)
    Язык : Russian

    Аудио #2
    Идентификатор : 3
    Формат : DTS
    Формат/Информация : Digital Theater Systems
    Идентификатор кодека : A_DTS
    Продолжительность : 1 ч. 36 м.
    Вид битрейта : Постоянный
    Битрейт : 1510 Кбит/сек
    Каналы : 6 каналов
    Расположение каналов : Front: L C R, Side: L R, LFE
    Частота : 48,0 КГц
    Битовая глубина : 24 бит
    Метод сжатия : С потерями
    Размер потока : 1,02 Гбайт (23%)
    Язык : English

    Меню
    00:00:00.000 : en:00:00:00.000
    00:04:26.016 : en:00:04:26.016
    00:15:08.366 : en:00:15:08.366
    00:16:01.767 : en:00:16:01.767
    00:43:20.528 : en:00:43:20.528
    00:50:26.412 : en:00:50:26.412
    00:54:30.350 : en:00:54:30.350
    00:54:30.475 : en:00:54:30.475
    01:05:19.457 : en:01:05:19.457
    01:13:22.440 : en:01:13:22.440
    01:19:56.500 : en:01:19:56.500
    01:26:18.548 : en:01:26:18.548
    01:33:35.401 : en:01:33:35.401


      Код:

      [*]21 сентября 2011 года студия Lionsgate объявила, что она приобрела права на распространение фильма в Америке, Великобритании и Канаде.
      [*]Фильм был снят еще в 2011 году и демонстрировался на паре кинофестивалей, но в широкий прокат вышел только в августе 2013 года.
      [*]Сразу же после того момента, как его убивают, Пол лежит на полу с широко открытым ртом. Когда позже снова показывают его тело, его рот закрыт.
      [*]Количество крови на струнах рояля увеличивается каждый раз после смены кадра.
      [*]В титрах должность бухгалтера продакшна написана с ошибкой («accountain» вместо правильного «accountant»).
      [*]После того как Феликс бьет Дрейка в грудь пятью ножами, в тот момент, когда он лежит на полу подвала, можно заметить защитный щит, который Дрейк носит под свитером.
      [*]еще 1 ошибка

    Скриншоты:
    скриншот   скриншот   скриншот  

    Трейлеры к фильмам [2014]


    © Оформление by Vetal



  • Скачать Тебе конец! через торрент http://i5-imageban-ru.translate.goog/out/2014/01/04/9ff6d5d9fdabfade578a84bd88509df3.jpg Скачать, смотреть онлайн Тебе конец! бесплантно в хорошем качестве Описание:Банда маньяков в звериных масках, вооруженных топорами и арбалетами, вторгается в загородный дом семьи Дэвисон. Жертвы оказываются ... 9 10 3
    Info! Золотая раздача, скачанное не засчитывается.
    Торрент: Зарегистрирован [2014-01-20 07:06] · скачан: 73 раз
    Статус: T временная
    Размер: 4.5 GB
    Как cкачать? Как скачать Тебе конец! через торрент | UTorrent

    28-11-2019 20:33  


    Отключить вcю реклaмy на сайте, в т.ч. и в плеере онлайн просмотра!

    20-01-2014 08:19 Тебе конец! Скачать торрент  

    нет нет нет ещё раз нет с хихидоком некогда смотреть не буду больше некогда в жизни



    20-01-2014 16:05 Тебе конец! Скачать торрент  

    долой хихидока



      Дорогой пользователь! Огромная просьба, поблагодарите релизера, оцените раздачу и оставьте свои комментарий, если Вы скачали Тебе конец! через торрент бесплатно!!
      Комментировать посты могут только пользователи прошедшие не сложную регистрацию
      Показать сообщения:    


      Тебе конец! через торрент
      Скачать бесплатно Тебе конец!
      Тебе конец! скачать торрент
      Тебе конец! смотреть онлайн
      Cкачать фильм Тебе конец! бесплатно
      Тебе конец! скачать торрент в хорошем качестве
      Тебе конец! смотреть онлайн бесплатно в хорошем качестве
      Вы не можете начинать темы
      Вы не можете отвечать на сообщения
      Вы не можете редактировать свои сообщения
      Вы не можете удалять свои сообщения
      Вы не можете голосовать в опросах
      Вы не можете прикреплять файлы к сообщениям
      Вы можете скачивать файлы
      Тебе конец! / You're Next [ 2013 , США , ужасы, триллер, комедия , BDRip 720p ] VO смотреть онлайн, скачать торрент picoco.icu