Доктор Стрэндж

Лицензия

Добыча

Дубляж

Уэнсдэй

1 сезон

Тор

Дубляж

В эфире

Дубляж

Там, где раки поют

MVO

Властелин колец

1 сезон

Deluxe

pack

Рекомендуем

30

Пиратка

ВАЖНО

ВАЖНО

Ghostwire

Пиратка

jed

RePack

nioh2

RePack

RDR2

RePack

NEED FOR SPEED™ PAYBACK

RePack

скачать торрент

Кинопоиск HD

Острые козырьки 6 сезон

6 сезон

FAR CRY 6

RePack

скачать торрент

Лицензия

скачать торрент

MVO

1

1 сезон

скачать торрент

1 сезон

скачать торрент

Лицензия

  

5 чувств страха / Chilling Visions: 5 Senses of Fear (Эрик Инглэнд / Eric England, Ник Эверхарт / Nick Everhart, Эмили Хагинс / Emily Hagins) [2013, США, ужасы, BDRip 1080p,Любительский (одноголосый)[Вадим Белов]

5 чувств страха через торрент piratbit.org

Размер: 6.67 GB | Добавлен: 8 лет 10 мес. назад | Торрент скачан:100 раз
Смотреть онлайн | Скачать   

20-01-2014 11:18 5 чувств страха Скачать торрент  

5 чувств страха / Chilling Visions: 5 Senses of Fear

«Five short films. Five ground-breaking visions. Five reasons to be scared senseless»

  • Год выпуска:2013
  • Страна:США
  • Жанр:ужасы

  • Продолжительность:01:27:32
  • Перевод:Любительский (одноголосый)[Вадим Белов]

  • Субтитры: English
    • Режиссер:Эрик Инглэнд / Eric England, Ник Эверхарт / Nick Everhart, Эмили Хагинс / Emily Hagins
    • Сценарий: Эрик Инглэнд / Eric England, Ник Эверхарт / Nick Everhart, Эмили Хагинс / Emily Hagins, Джесси Холлэнд / Jesse Holland, Мико Хьюз / Miko Hughes
    • Продюсер: Бонни Фарли-Лукас / Bonnie Farley-Lucas, Джастин Смит / Justin Smith, Колин Тейс / Colin Theys, Томас П. Витале / Thomas P. Vitale, Эндрю Гернхард / Andrew Gernhard

  • В ролях:Николас Туччи (Office Drone), Симба Смит (Lacey Sharp), Калеб Баруик (Henry), Jeff Valenti (Office Employee), Морган Уэст (Spencer Masters), Дэней Нейсон (Sarah), Гвен Косак (Office co-worker), Джон Дулан (Wounded Man /Opening credits victim), Шон Лесер (Office Clerk), Эрик Наенхюис (Marlboro Man), Эйс Марреро (Police Officer), Тиа Тринидад (Chelsea)

    • Описание:
      Пять коротких историй. Пять чувств. Всех их объединяет страх...


    • Качество:BDRip 1080p
    • Формат:MKV
    • Видео кодек: AVC
    • Аудио кодек:DTS / AC3
    • Видео: AVC, 1920x1080 (16:9), 9213 kbps, 23,976 fps, 0,185 bpp
    • Аудио №1: русский / AC3 / 2.0 / 44 kHz / 192 kbps / 16 bit ||
      Аудио №2: английский / DTS / 5.1 / 48 kHz / 1510 kbps / 24 bit


    Код:

    General
    Unique ID                                : 177546137878932456660388475737013836351 (0x85922470BB0FA8C2AE330E0213615A3F)
    Complete name                            : D:Торенты5.Senses.Of.Fear.2013.Blu.Ray.1080p.CINEMANIA.mkv
    Format                                   : Matroska
    Format version                           : Version 4 / Version 2
    File size                                : 6.67 GiB
    Duration                                 : 1h 27mn
    Overall bit rate                         : 10.9 Mbps
    Movie name                               : Release Group CINEMANIA
    Encoded date                             : UTC 2014-01-19 20:16:38
    Writing application                      : mkvmerge v6.7.0 ('Back to the Ground') 64bit built on Jan  8 2014 15:10:52
    Writing library                          : libebml v1.3.0 + libmatroska v1.4.1

    Video
    ID                                       : 1
    Format                                   : AVC
    Format/Info                              : Advanced Video Codec
    Format profile                           : High@L4.1
    Format settings, CABAC                   : Yes
    Format settings, ReFrames                : 4 frames
    Codec ID                                 : V_MPEG4/ISO/AVC
    Duration                                 : 1h 27mn
    Bit rate                                 : 9 213 Kbps
    Width                                    : 1 920 pixels
    Height                                   : 1 080 pixels
    Display aspect ratio                     : 16:9
    Frame rate                               : 23.976 fps
    Color space                              : YUV
    Chroma subsampling                       : 4:2:0
    Bit depth                                : 8 bits
    Scan type                                : Progressive
    Bits/(Pixel*Frame)                       : 0.185
    Stream size                              : 5.50 GiB (82%)
    Title                                    : Release Group CINEMANIA
    Writing library                          : x264 core 133 r2334 a3ac64b
    Encoding settings                        : cabac=1 / ref=4 / deblock=1:0:0 / analyse=0x3:0x133 / me=umh / subme=7 / psy=1 / psy_rd=1.00:0.00 / mixed_ref=1 / me_range=16 / chroma_me=1 / trellis=1 / 8x8dct=1 / cqm=0 / deadzone=21,11 / fast_pskip=0 / chroma_qp_offset=-2 / threads=12 / lookahead_threads=2 / sliced_threads=0 / nr=0 / decimate=1 / interlaced=0 / bluray_compat=0 / constrained_intra=0 / bframes=3 / b_pyramid=2 / b_adapt=1 / b_bias=0 / direct=1 / weightb=1 / open_gop=0 / weightp=2 / keyint=250 / keyint_min=23 / scenecut=40 / intra_refresh=0 / rc_lookahead=40 / rc=2pass / mbtree=1 / bitrate=9213 / ratetol=1.0 / qcomp=0.60 / qpmin=0 / qpmax=69 / qpstep=4 / cplxblur=20.0 / qblur=0.5 / ip_ratio=1.40 / aq=1:1.00
    Language                                 : English
    Default                                  : Yes
    Forced                                   : No

    Audio #1
    ID                                       : 2
    Format                                   : AC-3
    Format/Info                              : Audio Coding 3
    Mode extension                           : CM (complete main)
    Codec ID                                 : A_AC3
    Duration                                 : 1h 27mn
    Bit rate mode                            : Constant
    Bit rate                                 : 192 Kbps
    Channel(s)                               : 2 channels
    Channel positions                        : Front: L R
    Sampling rate                            : 44.1 KHz
    Bit depth                                : 16 bits
    Compression mode                         : Lossy
    Stream size                              : 120 MiB (2%)
    Title                                    : В.Белов
    Language                                 : Russian
    Default                                  : Yes
    Forced                                   : Yes

    Audio #2
    ID                                       : 3
    Format                                   : DTS
    Format/Info                              : Digital Theater Systems
    Codec ID                                 : A_DTS
    Duration                                 : 1h 27mn
    Bit rate mode                            : Constant
    Bit rate                                 : 1 510 Kbps
    Channel(s)                               : 6 channels
    Channel positions                        : Front: L C R, Side: L R, LFE
    Sampling rate                            : 48.0 KHz
    Bit depth                                : 24 bits
    Compression mode                         : Lossy
    Stream size                              : 945 MiB (14%)
    Language                                 : English
    Default                                  : No
    Forced                                   : No

    Text
    ID                                       : 4
    Format                                   : UTF-8
    Codec ID                                 : S_TEXT/UTF8
    Codec ID/Info                            : UTF-8 Plain Text
    Language                                 : English
    Default                                  : No
    Forced                                   : No


    Скриншоты:

    Трейлеры к фильмам [2014]

    © Оформление by Vetal



  • Скачать 5 чувств страха через торрент http://i5-imageban-ru.translate.goog/out/2014/01/20/e9c586f7aeecef21a9990ce38f8bafc8.jpg Скачать, смотреть онлайн 5 чувств страха бесплантно в хорошем качестве Описание:Пять коротких историй. Пять чувств. Всех их объединяет ... 10 10 6
    Info! Золотая раздача, скачанное не засчитывается.
    Торрент: Зарегистрирован [2014-01-20 11:18] · скачан: 100 раз
    Статус: √ проверено
    Размер: 6.67 GB
    Как cкачать? Как скачать 5 чувств страха через торрент | UTorrent

    % Раздел Тема Автор DL S | L
    Фильмы 2013 (Звук TS, Cam, VO, DVO) [ 1.37 GB ] 5 чувств страха / Chilling Visions: 5 Senses of Fear | Белов | HDRip,Любительский (одноголосый Ворон Скачать
    1 | 0

    28-11-2019 20:33  


    Отключить вcю реклaмy на сайте, в т.ч. и в плеере онлайн просмотра!

      Дорогой пользователь! Огромная просьба, поблагодарите релизера, оцените раздачу и оставьте свои комментарий, если Вы скачали 5 чувств страха через торрент бесплатно!!
      Комментировать посты могут только пользователи прошедшие не сложную регистрацию
      Показать сообщения:    


      5 чувств страха через торрент
      Скачать бесплатно 5 чувств страха
      5 чувств страха скачать торрент
      5 чувств страха смотреть онлайн
      Cкачать фильм 5 чувств страха бесплатно
      5 чувств страха скачать торрент в хорошем качестве
      5 чувств страха смотреть онлайн бесплатно в хорошем качестве
      Вы не можете начинать темы
      Вы не можете отвечать на сообщения
      Вы не можете редактировать свои сообщения
      Вы не можете удалять свои сообщения
      Вы не можете голосовать в опросах
      Вы не можете прикреплять файлы к сообщениям
      Вы можете скачивать файлы
      5 чувств страха / Chilling Visions: 5 Senses of Fear [2013, США, ужасы, BDRip 1080p,Любительский [Вадим Белов] смотреть онлайн, скачать торрент picoco.icu