Лицензия

MVO

1

1 сезон

Лицензия

Лицензия

13

MVO

1 сезон

Deluxe Edition

pack

Рекомендуем

30

Repack

ВАЖНО

ВАЖНО

Ghostwire

RePack

jed

RePack

fifa19

RePack

RDR2

RePack

NEED FOR SPEED™ PAYBACK

RePack

Кинопоиск HD

 Острые козырьки 6 сезон

6 сезон

FAR CRY 6

RePack

Лицензия

MVO

1

1 сезон

1 сезон

Лицензия

  

Игра престолов (сезон1) (серий1-10) / Game of Thrones (Алан Тейлор / Alan Taylor, Брайан Кирк / Brian Kirk, Даниэль Минахан / Daniel Minahan) [2011 г., Фэнтези, Драма, Приключения, BDRip, MVO (AlexFilm) + Оригинал+Субтитры:]

Игра престолов через торрент piratbit.org

Размер: 11.24 GB | Добавлен: 10 лет назад | Торрент скачан:96 раз
Смотреть онлайн Игра престолов | Скачать   

12-04-2012 13:51 Игра престолов Скачать торрент  

Игра престолов / Game of Thrones
[font=Fixedsys]
Год выпуска: 2011
Страна: США
Жанр: Фэнтези, Драма, Приключения
Продолжительность: ~00:55:00 х 10 серий
Перевод: Профессиональный многоголосый (AlexFilm) + Оригинал

Режиссер: Алан Тейлор / Alan Taylor, Брайан Кирк / Brian Kirk, Даниэль Минахан / Daniel Minahan

В ролях: Шон Бин / Sean Bean (Eddard Stark), Николай Костер-Вальдау / Nikolaj Coster-Waldau (Jaime Lannister), Лина Хиди / Lena Headey (Cersei Lannister), Айэйн Глен / Iain Glen (Ser Jorah Mormont), Питер Динклэйдж / Peter Dinklage (Tyrion Lannister), Эмилия Кларк / Emilia Clarke (Daenerys Targaryen), Мишель Фэйрли / Michelle Fairley (Catelyn Stark), Эйден Гиллен / Aidan Gillen (Petyr Baelish), Кит Харингтон / Kit Harington (Jon Snow), Марк Эдди / Mark Addy (Robert Baratheon)

Описание: К концу подходит время благоденствия, и лето, длившееся несколько десятилетий, угасает. Вокруг средоточия власти Семи королевств, Железного трона, зреет заговор, и в это непростое время король решает искать поддержки у друга юности Эддарда Старка. В мире, где все — от короля до наемника — рвутся к власти, плетут интриги и готовы вонзить нож в спину, есть место и благородству, состраданию и любви. Между тем, никто не замечает пробуждение тьмы из легенд далеко на Севере — и лишь Стена защищает живых к югу от нее.

Субтитры: Русские (форсированные), Русские (DeadMan совместно с 7Kingdoms.ru), Русские (Dara, Opel при участии сайта Цитадель Детей Света), Английские СПАСИБО Gummy

Видео XviD, 704x400 (16:9), 23.976 fps, 1 955 Kbps (0.290 bit/pixel)
Качество: BDRip Источник: / Blu-Ray Remux
Формат: AVI
Видео кодек: XviD
Аудио кодек: AC3
Аудио#1: 48 kHz, AC3 Dolby Digital, 3/2 (L,C,R,l,r) + LFE ch, ~448.00 kbps avg | MVO AlexFilm
Аудио#2: 48 kHz, AC3 Dolby Digital, 3/2 (L,C,R,l,r) + LFE ch, ~448.00 kbps avg | Original

General
Format : AVI
Format/Info : Audio Video Interleave
File size : 1.23 GiB
Duration : 1h 1mn
Overall bit rate : 2 865 Kbps
Movie name : Igra.Prestolov.S01.E01.2011.DUAL.BDRip.XviD.AC3.-HQ-ViDEO
Director : AngelOfTrue
Writing application : VirtualDubMod 1.5.10.3 | www.virtualdub-fr.org || (build 2550/release)
Original source form/Name : Movie
Copyright : HQ-ViDEO
Comment : 08.04.2012

Video
ID : 0
Format : MPEG-4 Visual
Format profile : Advanced Simple@L5
Format settings, BVOP : 1
Format settings, QPel : No
Format settings, GMC : No warppoints
Format settings, Matrix : Custom
Codec ID : XVID
Codec ID/Hint : XviD
Duration : 1h 1mn
Bit rate : 1 955 Kbps
Width : 704 pixels
Height : 400 pixels
Display aspect ratio : 16:9
Frame rate : 23.976 fps
Color space : YUV
Chroma subsampling : 4:2:0
Bit depth : 8 bits
Scan type : Progressive
Compression mode : Lossy
Bits/(Pixel*Frame) : 0.290
Stream size : 862 MiB (68%)
Writing library : XviD 65

Audio #1
ID : 1
Format : AC-3
Format/Info : Audio Coding 3
Mode extension : CM (complete main)
Codec ID : 2000
Duration : 1h 1mn
Bit rate mode : Constant
Bit rate : 448 Kbps
Channel(s) : 6 channels
Channel positions : Front: L C R, Side: L R, LFE
Sampling rate : 48.0 KHz
Bit depth : 16 bits
Compression mode : Lossy
Stream size : 197 MiB (16%)
Alignment : Split accross interleaves
Interleave, duration : 42 ms (1.00 video frame)
Interleave, preload duration : 500 ms

Audio #2
ID : 2
Format : AC-3
Format/Info : Audio Coding 3
Mode extension : CM (complete main)
Codec ID : 2000
Duration : 1h 1mn
Bit rate mode : Constant
Bit rate : 448 Kbps
Channel(s) : 6 channels
Channel positions : Front: L C R, Side: L R, LFE
Sampling rate : 48.0 KHz
Bit depth : 16 bits
Compression mode : Lossy
Stream size : 197 MiB (16%)
Alignment : Split accross interleaves
Interleave, duration : 42 ms (1.00 video frame)
Interleave, preload duration : 500 ms




Скачать Игра престолов через торрент http://piratpic.net/images/76665445674897430109.png Скачать, смотреть онлайн Игра престолов бесплантно в хорошем качестве Описание: К концу подходит время благоденствия, и лето, длившееся несколько десятилетий, угасает. Вокруг средоточия власти Семи королевств, ... 10 10 8
Info! Золотая раздача, скачанное не засчитывается.
Торрент: Зарегистрирован [2012-04-12 13:51] · скачан: 96 раз
Статус: √ проверено
Размер: 11.24 GB
Как cкачать? Как скачать Игра престолов через торрент | UTorrent




Последний раз редактировалось: ~Relizer~ (2012-04-12 16:52), всего редактировалось 7 раз(а)

28-11-2019 20:33  

Отключить вcю реклaмy на сайте

12-04-2012 14:03 Игра престолов Скачать торрент  

~Relizer~
Перевод: Профессиональный - ??
Видео ряд где?

Код:

Видео: 48 kHz, AC3 Dolby Digital, 3/2 (L,C,R,l,r) + LFE ch, ~448.00 kbps avg | MVO AlexFilm
Аудио#1: 48 kHz, AC3 Dolby Digital, 3/2 (L,C,R,l,r) + LFE ch, ~448.00 kbps avg | Original




12-04-2012 14:04 Игра престолов Скачать торрент  

профессиональный многоголосый (AlexFilm) исправил)



12-04-2012 15:13 Игра престолов Скачать торрент  

спасибо



12-04-2012 18:09 Игра престолов Скачать торрент  

~Relizer~ писал(а):

Видео XviD, 704x400 (16:9), 23.976 fps, 1 955 Kbps (0.290 bit/pixel)
Качество: BDRip Источник: / Blu-Ray Remux

В шаблоне так? Исправь



13-06-2012 13:45 Игра престолов Скачать торрент  

Дайте плиз раздачу((((



11-07-2015 12:52 Игра престолов Скачать торрент  

дайте раздачу плиз плиз плиз.....



01-08-2015 15:54 Игра престолов Скачать торрент  

что уже ни кто не раздает? хотелось скачать именно с этой озвучкой..



    Дорогой пользователь! Огромная просьба, поблагодарите релизера, оцените раздачу и оставьте свои комментарий, если Вы скачали Игра престолов через торрент бесплатно!!
    Комментировать посты могут только пользователи прошедшие не сложную регистрацию
    Показать сообщения:    


    Игра престолов через торрент
    Скачать бесплатно Игра престолов
    Игра престолов скачать торрент
    Игра престолов смотреть онлайн
    Cкачать фильм Игра престолов бесплатно
    Игра престолов скачать торрент в хорошем качестве
    Игра престолов смотреть онлайн бесплатно в хорошем качестве
    Вы не можете начинать темы
    Вы не можете отвечать на сообщения
    Вы не можете редактировать свои сообщения
    Вы не можете удалять свои сообщения
    Вы не можете голосовать в опросах
    Вы не можете прикреплять файлы к сообщениям
    Вы можете скачивать файлы