Лицензия

MVO

1

1 сезон

Лицензия

Лицензия

13

MVO

1 сезон

Deluxe Edition

pack

Рекомендуем

30

Repack

ВАЖНО

ВАЖНО

Ghostwire

RePack

jed

RePack

fifa19

RePack

RDR2

RePack

NEED FOR SPEED™ PAYBACK

RePack

Кинопоиск HD

 Острые козырьки 6 сезон

6 сезон

FAR CRY 6

RePack

Лицензия

MVO

1

1 сезон

1 сезон

Лицензия

  

Игра Престолов / Game of Thrones / Сезон: 2 / Серии: 1-10 (10) (Тим Ван Паттен, Алан Тейлор, Брайан Кирк) [2012, фэнтези, приключения, драма, HDTV 1080p, BBC Saint-Peters​burg + Оригинал]

Игра Престолов через торрент piratbit.org

Размер: 33.25 GB | Добавлен: 10 лет назад | Торрент скачан:46 раз
Смотреть онлайн Игра Престолов | Скачать   

02-05-2012 14:52 Игра Престолов Скачать торрент  

Игра Престолов / Game of Thrones Год выпуска: 2012
Страна: США
Жанр: фэнтези, приключения, драма
Продолжительность: 53 минуты
Перевод: профессиональный многоголосый закадровый (BBC Saint-Petersburg)
Оригинальная дорожка: английская
Русские субтитры: нет
Субтитры: нет
Режиссёр: Тим Ван Паттен, Алан Тейлор, Брайан Кирк
В ролях: Шон Бин, Николай Костер-Вальдау, Лина Хиди, Айэйн Глен, Питер Динклэйдж, Эмилия Кларк, Мишель Фэйрли, Эйден Гиллен, Кит Харингтон, Марк Эдди
Описание: В Вестеросе наступила осень — предвестник долгой зимы, когда Белые ходоки пробудятся ото сна. Но Стена и её защитники позабыты: три короля претендуют на Железный трон и два верховных лорда провозгласили себя королями над своими землями. Никто из них не желает заключить союзы, и каждый считает свое право на трон священным. И воцарился над миром кровавый хаос войны. И началась великая битва, в которой наградою победителю станет Железный Трон Семи Королевств. Страшные настали времена — времена отваги и отмщения, интриги и магии. Ныне дева повстречает безумца, а брат занесет меч на брата. Ныне убитые восстанут — и пойдут тропою Тьмы. Ныне вонзится холодная сталь в холодные сердца. Ныне грядет предначертанная пророчеством битва Королей

Rip by genkasper
Сэмпл
Качество: HDTV 1080p
Формат: MKV
Видео кодек: H.264
Аудио кодек: AC3
Видео: AVC High@L4.1 1920x1072 7828 Кбит/сек 23,976 кадра/сек 0.159 Bits/Pixel
Аудио: RUS: AC3 6 каналов 48,0 КГц 384 Кбит/сек CBR
Аудио 2: ENG: AC3 6 каналов 48,0 КГц 384 Кбит/сек CBR
General
Unique ID : 233795824797680165559382280442413179024 (0xAFE3701FC9E56ABAA010F14A6719E090)
Complete name : Game.of.Thrones.s02e03.HDTV1080p.Rus-Eng.BaibaKo.tv.mkv
Format : Matroska
Format version : Version 2
File size : 3.23 GiB
Duration : 52mn 41s
Overall bit rate : 8 770 Kbps
Movie name : big-movie.ru presents - Игра престолов 2x03
Encoded date : UTC 2012-04-18 13:52:34
Writing application : mkvmerge v5.4.0 ('Piper') built on Mar 10 2012 13:34:39
Writing library : libebml v1.2.3 + libmatroska v1.3.0
Video
ID : 1
Format : AVC
Format/Info : Advanced Video Codec
Format profile : High@L4.1
Format settings, CABAC : Yes
Format settings, ReFrames : 4 frames
Codec ID : V_MPEG4/ISO/AVC
Duration : 52mn 41s
Bit rate : 7 828 Kbps
Width : 1 920 pixels
Height : 1 072 pixels
Display aspect ratio : 16:9
Frame rate : 23.976 fps
Color space : YUV
Chroma subsampling : 4:2:0
Bit depth : 8 bits
Scan type : Progressive
Bits/(Pixel*Frame) : 0.159
Stream size : 2.88 GiB (89%)
Title : by_genkasper
Language : English
Default : Yes
Forced : No
Audio #1
ID : 2
Format : AC-3
Format/Info : Audio Coding 3
Mode extension : CM (complete main)
Codec ID : A_AC3
Duration : 52mn 41s
Bit rate mode : Constant
Bit rate : 384 Kbps
Channel(s) : 6 channels
Channel positions : Front: L C R, Side: L R, LFE
Sampling rate : 48.0 KHz
Bit depth : 16 bits
Compression mode : Lossy
Stream size : 145 MiB (4%)
Title : Rus BaibaKo.tv DD5.1
Language : Russian
Default : Yes
Forced : No
Audio #2
ID : 3
Format : AC-3
Format/Info : Audio Coding 3
Mode extension : CM (complete main)
Codec ID : A_AC3
Duration : 52mn 41s
Bit rate mode : Constant
Bit rate : 384 Kbps
Channel(s) : 6 channels
Channel positions : Front: L C R, Side: L R, LFE
Sampling rate : 48.0 KHz
Bit depth : 16 bits
Compression mode : Lossy
Stream size : 145 MiB (4%)
Title : Eng DD5.1
Language : English
Default : No
Forced : No

Внимание! Раздача ведётся путём добавления новых серий; при каждом добавлении создётся новый торрент. Чтобы начать докачку новой серии, пользователям необходимо сделать следующее:
(1) остановить скачивание,
(2) удалить старый торрент у себя из клиента (старые серии удалять не надо),
(3) скачать новый торрент и запустить его у себя в клиенте вместо старого, при этом указать клиенту путь в старую папку куда и должно происходить скачивание новых серий.
Ваш клиент при этом должен произвести хеширование (проверку) старой папки (если не производит сам - помогите ему сделать это), и будет докачивать только те серии которых у вас ещё нет. Старые серии при этом не удаляются, а продолжают раздаваться!
Eсли вы уже удалили старые серии, то предотвратить повторную закачку старых серий можно, отжав галочку в соответсвующих местах при запуске нового торрента.



Скачать Игра Престолов через торрент http://i35.fastpic.ru/big/2012/0414/92/8009657d65beaadaa590dbb460f81392.jpg Скачать, смотреть онлайн Игра Престолов бесплантно в хорошем качестве Описание: В Вестеросе наступила осень — предвестник долгой зимы, когда Белые ходоки пробудятся ото сна. Но Стена и её защитники позабыты: ... 9.9 10 7
Info! Золотая раздача, скачанное не засчитывается.
Торрент: Зарегистрирован [2012-06-05 21:21] · скачан: 46 раз
Статус: √ проверено
Размер: 33.25 GB
Как cкачать? Как скачать Игра Престолов через торрент | UTorrent

% Раздел Тема Автор DL S | L
Игра престолов [ 109.58 GB ] Игра престолов / Game of Thrones / Сезон: 1-8 из 8 / Серии: 1-73 из 73 | DUB | DLRip 1080p sheker187 Скачать
5 | 7
Игра престолов [ 322.59 GB ] Игра престолов / Game of Thrones / Сезон: 1-8 из 8 / Серии: 1-73 из 73 | LostFilm | DLRip 1080p sheker187 Скачать
3 | 3
Игра престолов [ 297.23 GB ] Игра престолов / Game of Thrones / Сезон: 1-7 из 7 / Серии: 1-67 из 67 | LostFilm | 1080p sheker187 Скачать
1 | 0
Игра престолов [ 23.95 GB ] Игра престолов / Game of Thrones / Сезон: 8 / Серии: 1-6 из 6 | Amedia | 1080p bober100 Скачать
1 | 0
Игра престолов [ 5.06 GB ] Игра престолов / Game of Thrones / Сезон: 8 / Серии: 1-6 из 6 | Amedia | DLRip bober100 Скачать
1 | 0
Игра престолов [ 23.95 GB ] Игра престолов / Game of Thrones / Сезон: 8 / Серии: 1-6 из 6 | MVO | 1080p bober100 Скачать
1 | 0
Игра престолов [ 785.59 GB ] Игра престолов / Game of Thrones / Сезон: 1-7 из 7 / Серии: 1-67 из 67 | DUB + 11xMVO | 1080p sheker187 Скачать
1 | 0



Последний раз редактировалось: wekotila (2012-06-05 21:21), всего редактировалось 10 раз(а)

28-11-2019 20:33  

Отключить вcю реклaмy на сайте

11-05-2012 06:30 Игра Престолов Скачать торрент  

а можно сепл? что то такой озвучки на второй сезон не было!



11-05-2012 13:58 Игра Престолов Скачать торрент  

klozz писал(а):

а можно сепл? что то такой озвучки на второй сезон не было!

Во-первых читаем внимательно тему. Семпл есть.
Во-вторых это уже третья раздача на трекере в таком переводе



30-05-2012 14:40 Игра Престолов Скачать торрент  

Добавлена 9 серия!



30-05-2012 16:25 Игра Престолов Скачать торрент  

офигенский сериал



30-05-2012 18:16 Игра Престолов Скачать торрент  

спасибо



05-06-2012 21:22 Игра Престолов Скачать торрент  

Добавлена заключительная серия 2 сезона!!!



    Дорогой пользователь! Огромная просьба, поблагодарите релизера, оцените раздачу и оставьте свои комментарий, если Вы скачали Игра Престолов через торрент бесплатно!!
    Комментировать посты могут только пользователи прошедшие не сложную регистрацию
    Показать сообщения:    


    Игра Престолов через торрент
    Скачать бесплатно Игра Престолов
    Игра Престолов скачать торрент
    Игра Престолов смотреть онлайн
    Cкачать фильм Игра Престолов бесплатно
    Игра Престолов скачать торрент в хорошем качестве
    Игра Престолов смотреть онлайн бесплатно в хорошем качестве
    Вы не можете начинать темы
    Вы не можете отвечать на сообщения
    Вы не можете редактировать свои сообщения
    Вы не можете удалять свои сообщения
    Вы не можете голосовать в опросах
    Вы не можете прикреплять файлы к сообщениям
    Вы можете скачивать файлы