Доктор Стрэндж

Лицензия

Добыча

Дубляж

Дом дракона

1 сезон

Тор

Дубляж

В эфире

Дубляж

Там, где раки поют

MVO

Властелин колец

1 сезон

Ultimate

pack

Рекомендуем

30

Пиратка

ВАЖНО

ВАЖНО

Ghostwire

Пиратка

jed

RePack

nioh2

RePack

RDR2

RePack

NEED FOR SPEED™ PAYBACK

RePack

скачать торрент

Кинопоиск HD

Острые козырьки 6 сезон

6 сезон

FAR CRY 6

RePack

скачать торрент

Лицензия

скачать торрент

MVO

1

1 сезон

скачать торрент

1 сезон

скачать торрент

Лицензия

  

7 дней / Les 7 jours du talion (Даниель Гро) [2010 г., драма, триллер, BDRip 1080p, Любительский одноголосый]

7 дней через торрент piratbit.org

Размер: 9.5 GB | Добавлен: 8 лет 10 мес. назад | Торрент скачан:14 раз
Смотреть онлайн | Скачать   

21-01-2014 15:18 7 дней Скачать торрент  

7 дней / Les 7 jours du talion
Год выпуска: 2010
Страна: Франция
Жанр: драма, триллер
Продолжительность: 01:50:57
Перевод: Любительский одноголосый
Субтитры: русские, английские
Режиссер: Даниель Гро
В ролях: Клод Леголт, Реми Жирар, Мартин Дюбрёй, Александр Гойетт, Доминик Куэснел

Описание: Бруно Хемель 38-летний хирург. Он живёт в Драммонвилле со своей женой Сильвией и 8-летней дочерью Жасмин. Как и большинство счастливых семей, они живут в мире и согласии. До тех пор пока одним осенним днём его дочь не находят изнасилованной и убитой. Убийцу немедленно арестовывают. Однако Бруно не находит покоя, и в его голове созревает план. Выкрасть «монстра» из рук полиции и сообщить им, что насильник и убийца будет подвергаться жесточайшим пыткам в течение 7 дней. После чего он будет умерщвлён. Как только это произойдёт, главный герой обещает сдаться властям.

Качество: BDRip 1080p
Формат: MKV
Видео кодек: AVC
Аудио кодек: DTS
Видео: AVC, 1920x1080 (16:9), 23.976 fps, 9 234 Kbps (0.186 bit/pixel)
Аудио#1: DTS, 48.0 KHz, 6 ch, 1 510 Kbps, CBR (Russian)
Аудио#2: DTS, 48.0 KHz, 6 ch, 1 510 Kbps, CBR (French)
Субтитры: Russian, English

Общее
Уникальный идентификатор : 243334934953122106937572157998046587195 (0xB7109A90F1BAB06394533604B23B293B)
Полное имя : D:ФильмыLes 7 jours du talion.2010.x264.BDRip.1080p.mkv
Формат : Matroska
Версия формата : Version 1
Размер файла : 9,50 Гбайт
Продолжительность : 1 ч. 50 м.
Режим общего битрейта : Переменный
Общий поток : 12,3 Мбит/сек
Дата кодирования : UTC 2010-07-29 20:53:10
Программа кодирования : mkvmerge v2.1.0 ('Another Place To Fall') built on Aug 19 2007 13:40:07
Библиотека кодирования : libebml v0.7.7 + libmatroska v0.8.1

Видео
Идентификатор : 1
Формат : AVC
Формат/Информация : Advanced Video Codec
Профиль формата : High@L4.1
Параметр CABAC формата : Да
Параметр ReFrames формата : 3 кадра
Идентификатор кодека : V_MPEG4/ISO/AVC
Продолжительность : 1 ч. 50 м.
Вид битрейта : Переменный
Битрейт : 9234 Кбит/сек
Максимальный битрейт : 40,0 Мбит/сек
Ширина : 1920 пикселей
Высота : 1080 пикселей
Соотношение сторон : 16:9
Режим частоты кадров : Постоянный
Частота кадров : 23,976 кадра/сек
Цветовое пространство : YUV
Субдискретизация насыщенности : 4:2:0
Битовая глубина : 8 бит
Тип развёртки : Прогрессивная
Бит/(Пиксели*Кадры) : 0.186
Размер потока : 6,97 Гбайт (73%)
Библиотека кодирования : x264 core 65 r999 cc51047
Настройки программы : cabac=1 / ref=3 / deblock=1:-1:-1 / analyse=0x3:0x133 / me=umh / subme=6 / psy_rd=1.0:0.0 / mixed_ref=1 / me_range=16 / chroma_me=1 / trellis=2 / 8x8dct=1 / cqm=0 / deadzone=21,11 / chroma_qp_offset=-2 / threads=6 / nr=0 / decimate=0 / mbaff=0 / bframes=1 / b_pyramid=0 / b_adapt=1 / b_bias=0 / direct=3 / wpredb=1 / keyint=14 / keyint_min=2 / scenecut=40(pre) / rc=2pass / bitrate=9234 / ratetol=1.0 / qcomp=0.75 / qpmin=10 / qpmax=51 / qpstep=4 / cplxblur=20.0 / qblur=0.5 / vbv_maxrate=50000 / vbv_bufsize=14745 / ip_ratio=1.10 / pb_ratio=1.10 / aq=1:1.0
Язык : English
Default : Да
Forced : Нет

Аудио #1
Идентификатор : 2
Формат : DTS
Формат/Информация : Digital Theater Systems
Режим : 16
Параметр Endianness формата : Big
Идентификатор кодека : A_DTS
Продолжительность : 1 ч. 50 м.
Вид битрейта : Постоянный
Битрейт : 1510 Кбит/сек
Каналы : 6 каналов
Расположение каналов : Front: L C R, Side: L R, LFE
Частота : 48,0 КГц
Битовая глубина : 24 бит
Метод сжатия : С потерями
Размер потока : 1,17 Гбайт (12%)
Заголовок : Любительский одноголосый -Anubis- DTS 1536 kpbs
Язык : Russian
Default : Да
Forced : Нет

Аудио #2
Идентификатор : 3
Формат : DTS
Формат/Информация : Digital Theater Systems
Режим : 16
Параметр Endianness формата : Big
Идентификатор кодека : A_DTS
Продолжительность : 1 ч. 50 м.
Вид битрейта : Постоянный
Битрейт : 1509 Кбит/сек
Каналы : 6 каналов
Расположение каналов : Front: L C R, Side: L R, LFE
Частота : 48,0 КГц
Битовая глубина : 24 бит
Метод сжатия : С потерями
Размер потока : 1,17 Гбайт (12%)
Заголовок : Оригинал DTS 1536 kpbs
Язык : French
Default : Нет
Forced : Нет

Текст #1
Идентификатор : 4
Формат : UTF-8
Идентификатор кодека : S_TEXT/UTF8
Идентификатор кодека/Информация : UTF-8 Plain Text
Заголовок : Субтитры
Язык : Russian
Default : Да
Forced : Нет

Текст #2
Идентификатор : 5
Формат : UTF-8
Идентификатор кодека : S_TEXT/UTF8
Идентификатор кодека/Информация : UTF-8 Plain Text
Заголовок : Субтитры
Язык : English
Default : Нет
Forced : Нет




Скачать 7 дней через торрент http://i33.fastpic.ru/big/2014/0121/5c/96eeb17b91ca45177f063c2b10c3c05c.jpg Скачать, смотреть онлайн 7 дней бесплантно в хорошем качестве Описание: Бруно Хемель 38-летний хирург. Он живёт в Драммонвилле со своей женой Сильвией и 8-летней дочерью Жасмин. Как и большинство ... 10 10 4
Info! Золотая раздача, скачанное не засчитывается.
Торрент: Зарегистрирован [2014-01-21 15:18] · скачан: 14 раз
Статус: √ проверено
Размер: 9.5 GB
Как cкачать? Как скачать 7 дней через торрент | UTorrent

28-11-2019 20:33  


Отключить вcю реклaмy на сайте, в т.ч. и в плеере онлайн просмотра!

    Дорогой пользователь! Огромная просьба, поблагодарите релизера, оцените раздачу и оставьте свои комментарий, если Вы скачали 7 дней через торрент бесплатно!!
    Комментировать посты могут только пользователи прошедшие не сложную регистрацию
    Показать сообщения:    


    7 дней через торрент
    Скачать бесплатно 7 дней
    7 дней скачать торрент
    7 дней смотреть онлайн
    Cкачать фильм 7 дней бесплатно
    7 дней скачать торрент в хорошем качестве
    7 дней смотреть онлайн бесплатно в хорошем качестве
    Вы не можете начинать темы
    Вы не можете отвечать на сообщения
    Вы не можете редактировать свои сообщения
    Вы не можете удалять свои сообщения
    Вы не можете голосовать в опросах
    Вы не можете прикреплять файлы к сообщениям
    Вы можете скачивать файлы
    7 дней / Les 7 jours du talion [2010 г., драма, триллер, BDRip 1080p, Любительский одноголосый] смотреть онлайн, скачать торрент picoco.icu