Достать ножи: Стеклянная луковица

MVO

Добыча

Дубляж

Уэнсдэй

1 сезон

Тор

Дубляж

13 клиническая

1 сезон

Жестокая ночь

MVO

Одни из нас

1 сезон

Deluxe

pack

Рекомендуем

30

Пиратка

ВАЖНО

ВАЖНО

Ghostwire

Пиратка

jed

RePack

nioh2

RePack

RDR2

RePack

NEED FOR SPEED™ PAYBACK

RePack

скачать торрент

Кинопоиск HD

Острые козырьки 6 сезон

6 сезон

FAR CRY 6

RePack

скачать торрент

Лицензия

скачать торрент

MVO

1

1 сезон

скачать торрент

1 сезон

скачать торрент

Лицензия

  

Сезон: убийц / Killing Season (Марк Стивен Джонсон) [2013 г., Триллер, драма, боевик, Blu-ray, Профессиональный многоголосый, Лицензия]

Сезон: убийц через торрент piratbit.org

Размер: 18.58 GB | Добавлен: 9 лет назад | Торрент скачан:80 раз
Смотреть онлайн | Скачать | Поддержите нас   

21-01-2014 07:03 Сезон: убийц Скачать торрент  

Сезон убийц / Killing Season
Год выпуска: 2013
Страна: США, Бельгия / Corsan, Millennium Films
Жанр: Триллер, драма, боевик,
Продолжительность: 01:30:40
Перевод: Профессиональный многоголосый, Лицензия
Тип релиза: Лицензия
Субтитры: Нет

Режиссер: Марк Стивен Джонсон
Продюссер: Пол Брюлс, Эд Кэйтелл III, Боаз Дэвидсон
Сценарий: Ивэн Догерти

Премьера в мире: 29 июня 2013

IMDB 5.40 (15 690)


В ролях: Джон Траволта, Роберт Де Ниро, Майло Вентимилья, Элизабет Олин, Диана Любенова, Калин Сарменов, Стефан Штерев,

Описание: История о ветеранах войны в Боснии — американце и сербе, которые, спустя много лет после событий в Европе, устраивают свою личную Третью мировую войну, пытаясь свести счеты.

Качество: Blu-ray
Формат: BDAV
Видео кодек: AVC
Аудио кодек: LPCM
Видео: MPEG-4 AVC, ~ 23.4 Мбит/с, 1920х1080 (16:9), 24.000 кадр/с
Аудио#1: Русский ( LPCM, 6 ch, 4608 Кбит/с, 48.0 КГц, 16 бит)
скриншот  скриншот  скриншот  





Общее
Идентификатор : 0 (0x0)
Полное имя : E:Сезон.убийц-Killing.Season.(2013).Blu-RayBDMVSTREAM�0003.m2ts
Формат : BDAV
Формат/Информация : Blu-ray Video
Размер файла : 18,5 Гбайт
Продолжительность : 1 ч. 30 м.
Режим общего битрейта : Переменный
Общий поток : 29,2 Мбит/сек
Максимальный общий битрейт : 48,0 Мбит/сек

Видео
Идентификатор : 4113 (0x1011)
Идентификатор меню : 1 (0x1)
Формат : AVC
Формат/Информация : Advanced Video Codec
Профиль формата : High@L4.1
Параметр CABAC формата : Да
Параметр ReFrames формата : 4 кадра
Параметр GOP формата : M=3, N=24
Идентификатор кодека : 27
Продолжительность : 1 ч. 30 м.
Вид битрейта : Переменный
Битрейт : 23,4 Мбит/сек
Максимальный битрейт : 33,0 Мбит/сек
Ширина : 1920 пикселей
Высота : 1080 пикселей
Соотношение сторон : 16:9
Частота кадров : 24,000 кадра/сек
Стандарт вещания : NTSC
Цветовое пространство : YUV
Субдискретизация насыщенности : 4:2:0
Битовая глубина : 8 бит
Тип развёртки : Прогрессивная
Бит/(Пиксели*Кадры) : 0.470
Размер потока : 14,8 Гбайт (80%)
Основные цвета : BT.709
Характеристики трансфера : BT.709
Коэффициенты матрицы : BT.709

Аудио
Идентификатор : 4352 (0x1100)
Идентификатор меню : 1 (0x1)
Формат : PCM
Параметр Endianness формата : Big
Параметр Sign формата : Signed
Режим смешивания : Blu-ray
Идентификатор кодека : 128
Продолжительность : 1 ч. 30 м.
Вид битрейта : Постоянный
Битрейт : 4608 Кбит/сек
Каналы : 6 каналов
Расположение каналов : Front: L C R, Side: L R, LFE
Частота : 48,0 КГц
Битовая глубина : 16 бит
Размер потока : 2,92 Гбайт (16%)


Сезон убийц скачать торрент





Скачать Сезон: убийц через торрент https://pic1.kartinco.top/images/61/dteej.jpg Скачать, смотреть онлайн Сезон: убийц бесплантно в хорошем качестве Описание: История о ветеранах войны в Боснии — американце и сербе, которые, спустя много лет после событий в Европе, устраивают свою личную ... 9.9 10 8
Info! Золотая раздача, скачанное не засчитывается.
Торрент: Зарегистрирован [2014-01-21 07:03] · скачан: 80 раз
Статус: √ проверено
Размер: 18.58 GB
Как cкачать? Как скачать Сезон: убийц через торрент | UTorrent

% Раздел Тема Автор DL S | L
Фильмы (DVD фильмы) [ 3.4 GB ] Сезон: убийц / Killing Season | | 2013, триллер, драма, боевик, DVD5 voovaz Скачать
1 | 0
Фильмы 2013 [DVDrip, WEB-DLRip, HDrip] [ 1.37 GB ] Сезон: убийц / Killing Season | Лицензия | HDRip, Лицензия Twi7ter Скачать
1 | 0
Фильмы 2013 [DVDrip, WEB-DLRip, HDrip] [ 1.46 GB ] Сезон: убийц / Killing Season | Лицензия | BDRip-AVC potroks Скачать
1 | 0
Фильмы (WEB-DL 720p, 1080p) [ 2.81 GB ] Сезон: убийц / Killing Season | | 720p Ворон Скачать
1 | 0

28-11-2019 20:33  


Отключить вcю реклaмy на сайте, в т.ч. и в плеере онлайн просмотра!

    Дорогой пользователь! Огромная просьба, поблагодарите релизера, оцените раздачу и оставьте свои комментарий, если Вы скачали Сезон: убийц через торрент бесплатно!!
    Комментировать посты могут только пользователи прошедшие не сложную регистрацию
    Показать сообщения:    


    Сезон: убийц через торрент
    Скачать бесплатно Сезон: убийц
    Сезон: убийц скачать торрент
    Сезон: убийц смотреть онлайн
    Cкачать фильм Сезон: убийц бесплатно
    Сезон: убийц скачать торрент в хорошем качестве
    Сезон: убийц смотреть онлайн бесплатно в хорошем качестве
    Вы не можете начинать темы
    Вы не можете отвечать на сообщения
    Вы не можете редактировать свои сообщения
    Вы не можете удалять свои сообщения
    Вы не можете голосовать в опросах
    Вы не можете прикреплять файлы к сообщениям
    Вы можете скачивать файлы
    Сезон: убийц / Killing Season [2013 г., Триллер, драма, боевик, Blu-ray, Профессиональный многоголосый, Лицензия] смотреть онлайн, скачать торрент picoco.icu