Достать ножи: Стеклянная луковица

MVO

Добыча

Дубляж

Уэнсдэй

1 сезон

Тор

Дубляж

13 клиническая

1 сезон

Жестокая ночь

MVO

Одни из нас

1 сезон

Deluxe

pack

Рекомендуем

30

Пиратка

ВАЖНО

ВАЖНО

Ghostwire

Пиратка

jed

RePack

nioh2

RePack

RDR2

RePack

NEED FOR SPEED™ PAYBACK

RePack

скачать торрент

Кинопоиск HD

Острые козырьки 6 сезон

6 сезон

FAR CRY 6

RePack

скачать торрент

Лицензия

скачать торрент

MVO

1

1 сезон

скачать торрент

1 сезон

скачать торрент

Лицензия

  

Прощай, детка, прощай / Gone Baby Gone (Бен Аффлек) [2007 г., триллер, драма, криминал, детектив, BD-Remux, Профессиональный многоголосый]

Прощай, детка, прощай через торрент piratbit.org

Размер: 24.45 GB | Добавлен: 9 лет назад | Торрент скачан:42 раза
Смотреть онлайн | Скачать | Поддержите нас   

22-01-2014 14:53 Прощай, детка, прощай Скачать торрент  

Прощай, детка, прощай / Gone Baby Gone

Год выпуска: 2007
Страна: США
Жанр: триллер, драма, криминал, детектив
Продолжительность: 01:53:55
Перевод: Профессиональный многоголосый
Субтитры: русские, английские

Режиссер: Бен Аффлек
Продюссер: Шон Бэйли, Алан Лэдд мл., Чай Картер
Сценарий: Бен Аффлек, Аарон Стокард, Деннис Лихейн
Бюджет: $19 000 000
Премьера в мире: 5 сентября 2007

IMDB 7.70 (143 727)


В ролях: Кэйси Аффлек, Мишель Монахэн, Морган Фриман, Эд Харрис, Джон Эштон, Эми Райан, Эми Мэдигэн, Титус Уэлливер, Майкл К. Уильямс, Эди Гатеги

Описание: В пригороде Бостона без вести пропадает четырехлетняя Аманда МакКриди. Когда официальные власти прекращают попытки найти исчезнувшую девочку, ее тетя упрашивает двух частных детективов, Патрика Кензи и Анджелу Дженнаро, начать расследование.Поначалу они не торопятся взяться за безнадежное дело, однако новые обстоятельства заставляют их поставить на кон не только собственные профессиональные репутации, но и жизни.

Качество: BD Remux
Формат: BDAV
Видео кодек: VC-1
Аудио кодек: AC3 / PCM
Видео: VC-1, 1920x1080, 23.976fps, 23509 kbps, Bits/(Pixel*Frame): 0.480
Аудио#1: Russian: AC-3, 384 Kbps, 6 ch, 48.0 KHz
Аудио#2: English: PCM, 4 608 Kbps, 6 ch, 48.0 KHz
Аудио#3: English: AC-3, 640 Kbps, 6 ch, 48.0 KHz
General
ID : 1 (0x1)
Complete name : /etc/seedbox/home/kep/data/Gone Baby Gone rus/BDMV/STREAM/00000.m2ts
Format : BDAV
Format/Info : Blu-ray Video
File size : 24.4 GiB
Duration : 1h 53mn
Overall bit rate mode : Variable
Overall bit rate : 30.7 Mbps
Maximum Overall bit rate : 35.5 Mbps

Video
ID : 4113 (0x1011)
Menu ID : 1 (0x1)
Format : VC-1
Format profile : Advanced@L3
Codec ID : 234
Duration : 1h 53mn
Bit rate : 23.9 Mbps
Width : 1 920 pixels
Height : 1 080 pixels
Display aspect ratio : 16:9
Frame rate : 23.976 fps
Color space : YUV
Chroma subsampling : 4:2:0
Bit depth : 8 bits
Scan type : Progressive
Compression mode : Lossy
Bits/(Pixel*Frame) : 0.480
Stream size : 19.0 GiB (78%)

Audio #1
ID : 4352 (0x1100)
Menu ID : 1 (0x1)
Format : AC-3
Format/Info : Audio Coding 3
Mode extension : CM (complete main)
Format settings, Endianness : Big
Codec ID : 129
Duration : 1h 53mn
Bit rate mode : Constant
Bit rate : 384 Kbps
Channel count : 6 channels
Channel positions : Front: L C R, Side: L R, LFE
Sampling rate : 48.0 KHz
Bit depth : 16 bits
Compression mode : Lossy
Stream size : 313 MiB (1%)
Language : Russian

Audio #2
ID : 4353 (0x1101)
Menu ID : 1 (0x1)
Format : PCM
Format settings, Endianness : Big
Format settings, Sign : Signed
Muxing mode : Blu-ray
Codec ID : 128
Duration : 1h 53mn
Bit rate mode : Constant
Bit rate : 4 608 Kbps
Channel count : 6 channels
Channel positions : Front: L C R, Side: L R, LFE
Sampling rate : 48.0 KHz
Bit depth : 16 bits
Stream size : 3.67 GiB (15%)
Language : English

Audio #3
ID : 4354 (0x1102)
Menu ID : 1 (0x1)
Format : AC-3
Format/Info : Audio Coding 3
Mode extension : CM (complete main)
Format settings, Endianness : Big
Codec ID : 129
Duration : 1h 53mn
Bit rate mode : Constant
Bit rate : 640 Kbps
Channel count : 6 channels
Channel positions : Front: L C R, Side: L R, LFE
Sampling rate : 48.0 KHz
Bit depth : 16 bits
Compression mode : Lossy
Stream size : 522 MiB (2%)
Language : English

Text #1
ID : 4608 (0x1200)
Menu ID : 1 (0x1)
Format : PGS
Codec ID : 144
Language : Russian

Text #2
ID : 4609 (0x1201)
Menu ID : 1 (0x1)
Format : PGS
Codec ID : 144
Language : English



Скачать Прощай, детка, прощай через торрент http://i2-imageban-ru.translate.goog/out/2014/01/22/4a952e1786d5d5496d9e6534c1e552f5.png Скачать, смотреть онлайн Прощай, детка, прощай бесплантно в хорошем качестве Описание: В пригороде Бостона без вести пропадает четырехлетняя Аманда МакКриди. Когда официальные власти прекращают попытки найти ... 9.6 10 8
Info! Золотая раздача, скачанное не засчитывается.
Торрент: Зарегистрирован [2014-01-22 14:53] · скачан: 42 раз
Статус: √ проверено
Размер: 24.45 GB
Как cкачать? Как скачать Прощай, детка, прощай через торрент | UTorrent

% Раздел Тема Автор DL S | L
Фильмы [HD 720p, 1080p] (Хороший звук DUB, MVO) [ 6.57 GB ] Прощай, детка, прощай / Gone Baby Gone | MVO + 2xAVO + Original + Sub | 720p от _denis_100 | NNNB _denis_100 Скачать
1 | 0
Фильмы 2006-2008 [ 2.05 GB ] Прощай, детка, прощай / Gone Baby Gone | | HDRip, Профессиональный + Оригинал кэп Скачать
1 | 0
Фильмы 2006-2008 [ 1.46 GB ] Прощай, детка, прощай / Gone Baby Gone | | BDRip _tatyana_ Скачать
1 | 0

28-11-2019 20:33  


Отключить вcю реклaмy на сайте, в т.ч. и в плеере онлайн просмотра!

    Дорогой пользователь! Огромная просьба, поблагодарите релизера, оцените раздачу и оставьте свои комментарий, если Вы скачали Прощай, детка, прощай через торрент бесплатно!!
    Комментировать посты могут только пользователи прошедшие не сложную регистрацию
    Показать сообщения:    


    Прощай, детка, прощай через торрент
    Скачать бесплатно Прощай, детка, прощай
    Прощай, детка, прощай скачать торрент
    Прощай, детка, прощай смотреть онлайн
    Cкачать фильм Прощай, детка, прощай бесплатно
    Прощай, детка, прощай скачать торрент в хорошем качестве
    Прощай, детка, прощай смотреть онлайн бесплатно в хорошем качестве
    Вы не можете начинать темы
    Вы не можете отвечать на сообщения
    Вы не можете редактировать свои сообщения
    Вы не можете удалять свои сообщения
    Вы не можете голосовать в опросах
    Вы не можете прикреплять файлы к сообщениям
    Вы можете скачивать файлы
    Прощай, детка, прощай / Gone Baby Gone [2007 г., триллер, драма, криминал, детектив, BD-Remux, Профессиональный многоголосый] смотреть онлайн, скачать торрент picoco.icu