Достать ножи: Стеклянная луковица

MVO

Добыча

Дубляж

Уэнсдэй

1 сезон

Тор

Дубляж

13 клиническая

1 сезон

Жестокая ночь

MVO

Одни из нас

1 сезон

Deluxe

pack

Рекомендуем

30

Пиратка

ВАЖНО

ВАЖНО

Ghostwire

Пиратка

jed

RePack

nioh2

RePack

RDR2

RePack

NEED FOR SPEED™ PAYBACK

RePack

скачать торрент

Кинопоиск HD

Острые козырьки 6 сезон

6 сезон

FAR CRY 6

RePack

скачать торрент

Лицензия

скачать торрент

MVO

1

1 сезон

скачать торрент

1 сезон

скачать торрент

Лицензия

  

Из 13 в 30 / 13 Going on 30 (Гари Виник) [2004, США, фэнтези, мелодрама, комедия, BD Remux 1080p] Дубляж + 2xMVO

Из 13 в 30 через торрент piratbit.org

Размер: 22.64 GB | Добавлен: 9 лет назад | Торрент скачан:12 раз
Смотреть онлайн | Скачать | Поддержите нас   

23-01-2014 18:48 Из 13 в 30 Скачать торрент  

Из 13 в 30 / 13 Going on 30
«У каждой женщины есть маленькая тайна и она действительно удивительна»
Год выпуска: 2004
Страна: США
Жанр: фэнтези, мелодрама, комедия
Продолжительность: 01:37:47
Перевод:
|Профессиональный (полное дублирование)|
|Профессиональный (многоголосый, закадровый)|
|Профессиональный (многоголосый, закадровый) Tycoon|

Субтитры: Русские, английские
Режиссер: Гари Виник / Gary Winick
В ролях: Дженнифер Гарнер (Jenna Rink), Марк Руффало (Matt Flamhaff), Джуди Грир (Lucy Wyman), Энди Серкис (Richard Kneeland), Кэти Бейкер (Bev Rink), Фил Ривз (Wayne Rink), Сэмюэл Болл (Alex Carlson), Марсия ДеБонис (Arlene), Криста Б. Аллен (Young Jenna), Шон Маркетт (Young Matt), Кирстен Уоррен (Trish Sackett), Джо Грифази (Mr. Flamhaff)
Описание:
Дети так отчаянно хотят быть взрослыми, не догадываясь, что пройдут годы, и они так же страстно захотят обратного. Но так как в нашем мире все еще случаются чудеса, некоторым не приходится ждать долго, чтобы убедиться в этом. Сегодня Дженни всего 13 и она очень хочет стать большой. Видимо, ее желание попадает по нужному адресу, поскольку на утро она просыпается... 30-летней красавицей!
Словно кто-то перемотал пленку с 17 годами жизни. Самое время кричать «ура»? Только вот какая штука: для всех эти годы прошли обычным порядком, но во взрослой Дженни, оказывается душа девочки-подростка, что постоянно приводит к забавным недоразумениям и ставит в тупик окружающих...
Рейтинг


MPAA: PG-13 - Детям до 13 лет просмотр не желателен

Качество: BD Remux
Формат: BDAV
Видео кодек: AVC
Аудио кодек: AC3 / TrueHD
Видео: MPEG-4 AVC, 26961 Кбит/с, 1920x1080, 23.976 кадр/с
Аудио №1: Русский (АС3, 6 ch, 640 Кбит/с, 48 kHz) |Дубляж|
Аудио №2: Русский (АС3, 6 ch, 384 Кбит/с, 48 kHz) |MVO|
Аудио №3: Русский (АС3, 6 ch, 448 Кбит/с, 48 kHz) |MVO Tycoon|
Аудио №4: Английский /Dolby TrueHD Audio 5.1 / 48 kHz / 1471 kbps / 16-bit (AC3 Embedded: 5.1 / 48 kHz / 640 kbps / DN -1dB)
Оформление: Messa-fan
General
ID : 1 (0x1)
Complete name : Iz.13.v.30.2004.BDRemux.(1080p).ExKinoRay/BDMV/STREAM/00000.m2ts
Format : BDAV
Format/Info : Blu-ray Video
File size : 22.6 GiB
Duration : 1h 37mn
Overall bit rate mode : Variable
Overall bit rate : 33.1 Mbps
Maximum Overall bit rate : 35.5 Mbps

Video
ID : 4113 (0x1011)
Menu ID : 1 (0x1)
Format : AVC
Format/Info : Advanced Video Codec
Format profile : High@L4.1
Format settings, CABAC : Yes
Format settings, ReFrames : 2 frames
Codec ID : 27
Duration : 1h 37mn
Bit rate mode : Variable
Width : 1 920 pixels
Height : 1 080 pixels
Display aspect ratio : 16:9
Frame rate : 23.976 fps
Color space : YUV
Chroma subsampling : 4:2:0
Bit depth : 8 bits
Scan type : Progressive

Audio #1
ID : 4352 (0x1100)
Menu ID : 1 (0x1)
Format : AC-3
Format/Info : Audio Coding 3
Mode extension : CM (complete main)
Format settings, Endianness : Big
Codec ID : 129
Duration : 1h 37mn
Bit rate mode : Constant
Bit rate : 640 Kbps
Channel(s) : 6 channels
Channel positions : Front: L C R, Side: L R, LFE
Sampling rate : 48.0 KHz
Bit depth : 16 bits
Compression mode : Lossy
Stream size : 447 MiB (2%)
Language : Russian

Audio #2
ID : 4353 (0x1101)
Menu ID : 1 (0x1)
Format : AC-3
Format/Info : Audio Coding 3
Mode extension : CM (complete main)
Format settings, Endianness : Big
Codec ID : 129
Duration : 1h 37mn
Bit rate mode : Constant
Bit rate : 384 Kbps
Channel(s) : 6 channels
Channel positions : Front: L C R, Side: L R, LFE
Sampling rate : 48.0 KHz
Bit depth : 16 bits
Compression mode : Lossy
Stream size : 268 MiB (1%)
Language : Russian

Audio #3
ID : 4354 (0x1102)
Menu ID : 1 (0x1)
Format : AC-3
Format/Info : Audio Coding 3
Mode extension : CM (complete main)
Format settings, Endianness : Big
Codec ID : 129
Duration : 1h 37mn
Bit rate mode : Constant
Bit rate : 448 Kbps
Channel(s) : 6 channels
Channel positions : Front: L C R, Side: L R, LFE
Sampling rate : 48.0 KHz
Bit depth : 16 bits
Compression mode : Lossy
Stream size : 313 MiB (1%)
Language : Russian

Audio #4
ID : 4355 (0x1103)
Menu ID : 1 (0x1)
Format : TrueHD / AC-3
Mode extension : CM (complete main)
Format settings, Endianness : Big
Muxing mode : Stream extension
Codec ID : 131
Duration : 1h 37mn
Bit rate mode : Variable / Constant
Bit rate : Unknown / 640 Kbps
Maximum bit rate : 2 673 Kbps / 640 Kbps
Channel(s) : 6 channels
Channel positions : Front: L C R, Side: L R, LFE
Sampling rate : 48.0 KHz
Bit depth : 16 bits
Language : English

Text #1
ID : 4608 (0x1200)
Menu ID : 1 (0x1)
Format : PGS
Codec ID : 144
Language : Russian

Text #2
ID : 4609 (0x1201)
Menu ID : 1 (0x1)
Format : PGS
Codec ID : 144
Language : English

Text #3
ID : 4610 (0x1202)
Menu ID : 1 (0x1)
Format : PGS
Codec ID : 144
Language : English

Text #4
ID : 4611 (0x1203)
Menu ID : 1 (0x1)
Format : PGS
Codec ID : 144
Delay relative to video : 3s 3ms
Language : English

Text #5
ID : 4612 (0x1204)
Menu ID : 1 (0x1)
Format : PGS
Codec ID : 144
Language : English
Disc Title: Iz.13.v.30.2004.2004.BDRemux.(1080p).ExKinoRay
Disc Size: 24 304 976 772 bytes
Protection: AACS
BD-Java: No
Playlist: 00000.MPLS
Size: 24 304 883 712 bytes
Length: 1:37:48.320
Total Bitrate: 33,13 Mbps
Video: MPEG-4 AVC Video / 26961 kbps / 1080p / 23,976 fps / 16:9 / High Profile 4.1
Audio: Russian / Dolby Digital Audio / 5.1 / 48 kHz / 640 kbps / DN -1dB
Audio: Russian / Dolby Digital Audio / 5.1 / 48 kHz / 384 kbps / DN -4dB
Audio: Russian / Dolby Digital Audio / 5.1 / 48 kHz / 448 kbps
Audio: English / Dolby TrueHD Audio / 5.1 / 48 kHz / 1471 kbps / 16-bit (AC3 Embedded: 5.1 / 48 kHz / 640 kbps / DN -1dB)
Subtitle: Russian / 0,247 kbps
Subtitle: English / 29,539 kbps
Subtitle: English / 24,228 kbps
Subtitle: English / 66,071 kbps
Subtitle: English / 58,376 kbps

  • По фильму Дженна, Мэтти и Люси одного возраста, но на момент съёмок Дженнифер Гарнер (Дженна) было 32 года, Марку Руффало (Мэтт) 37 лет, а Джуди Грир (Люси) было 29 лет.



  • Скачать Из 13 в 30 через торрент http://i2-imageban-ru.translate.goog/out/2014/01/23/d63b035db705a206c8ed30d66b9c6fd2.png Скачать, смотреть онлайн Из 13 в 30 бесплантно в хорошем качестве Описание: Дети так отчаянно хотят быть взрослыми, не догадываясь, что пройдут годы, и они так же страстно захотят обратного. Но так как в ... 10 10 1
    Info! Золотая раздача, скачанное не засчитывается.
    Торрент: Зарегистрирован [2014-01-23 18:49] · скачан: 12 раз
    Статус: √ проверено
    Размер: 22.64 GB
    Как cкачать? Как скачать Из 13 в 30 через торрент | UTorrent

    28-11-2019 20:33  


    Отключить вcю реклaмy на сайте, в т.ч. и в плеере онлайн просмотра!

      Дорогой пользователь! Огромная просьба, поблагодарите релизера, оцените раздачу и оставьте свои комментарий, если Вы скачали Из 13 в 30 через торрент бесплатно!!
      Комментировать посты могут только пользователи прошедшие не сложную регистрацию
      Показать сообщения:    


      Из 13 в 30 через торрент
      Скачать бесплатно Из 13 в 30
      Из 13 в 30 скачать торрент
      Из 13 в 30 смотреть онлайн
      Cкачать фильм Из 13 в 30 бесплатно
      Из 13 в 30 скачать торрент в хорошем качестве
      Из 13 в 30 смотреть онлайн бесплатно в хорошем качестве
      Вы не можете начинать темы
      Вы не можете отвечать на сообщения
      Вы не можете редактировать свои сообщения
      Вы не можете удалять свои сообщения
      Вы не можете голосовать в опросах
      Вы не можете прикреплять файлы к сообщениям
      Вы можете скачивать файлы
      Из 13 в 30 / 13 Going on 30 [2004, США, фэнтези, мелодрама, комедия, BD Remux 1080p] Дубляж + 2xMVO смотреть онлайн, скачать торрент picoco.icu