Достать ножи: Стеклянная луковица

MVO

Добыча

Дубляж

Уэнсдэй

1 сезон

Тор

Дубляж

13 клиническая

1 сезон

Жестокая ночь

MVO

Одни из нас

1 сезон

Deluxe

pack

Рекомендуем

30

Пиратка

ВАЖНО

ВАЖНО

Ghostwire

Пиратка

jed

RePack

nioh2

RePack

RDR2

RePack

NEED FOR SPEED™ PAYBACK

RePack

скачать торрент

Кинопоиск HD

Острые козырьки 6 сезон

6 сезон

FAR CRY 6

RePack

скачать торрент

Лицензия

скачать торрент

MVO

1

1 сезон

скачать торрент

1 сезон

скачать торрент

Лицензия

  

Тринадцатый этаж / The Thirteenth Floor (Йозеф Русский) [1999 г., фантастика, триллер, детектив, BD-Remux, Дубляж, DVO, AVO]

Тринадцатый этаж через торрент piratbit.org

Размер: 23.29 GB | Добавлен: 9 лет назад | Торрент скачан:11 раз
Смотреть онлайн | Скачать | Поддержите нас   

26-01-2014 17:40 Тринадцатый этаж Скачать торрент  

Тринадцатый этаж / The Thirteenth Floor

Год выпуска: 1999
Страна: Германия, США
Жанр: фантастика, триллер, детектив
Продолжительность: 01:40:30
Перевод: Дубляж, Двухголосый, Авторский - Ю. Живов
Субтитры: Russian, English

Режиссер: Йозеф Русский
Продюссер: Роланд Эммерих, Уте Эммерих, Марко Вебер
Сценарий: Йозеф Русский, Равель Сентено-Родригес, Дэниэл Ф. Галуйе
Бюджет: $16 000 000
Премьера в мире: 16 апреля 1999

IMDB 7.00 (38 448)


В ролях: Крэйг Бирко, Гретхен Мол, Армин Мюллер-Шталь, Винсент Д'Онофрио, Деннис Хейсбёрт, Стивен Шуб

Описание: На тринадцатом этаже компьютерной корпорации была разработана совершенная модель виртуальной реальности, создание которой повлекло за собой цепь таинственных убийств. Разгадать загадку можно, лишь погрузившись в иное измерение, где может быть ответ на многие вопросы, а может быть — страшная нереальность...



Качество: BD-Remux
Формат: BDAV
Видео кодек: AVC
Аудио кодек: DTS-HD / AC-3
Видео: MPEG-4 AVC Video, 25766 kbps, 1 920x1080p,23,976 fps, 16:9
Аудио#1: Russian: DTS-HD MA 5.1 / 48 kHz / 2358 kbps / 24-bit (DTS Core: 5.1 / 48 kHz / 1509 kbps / 24-bit / DN -4dB) - Дублированный
Аудио#2: Russian: DD 5.1 / 48 kHz / 384 kbps / DN -4dB - закадровый (Двухголосый - И. Тарадайкин и Л. Германова)
Аудио#3: Russian: DD 5.1 / 48 kHz / 448 kbps / DN -4dB - закадровый (Авторский - Ю. Живов)
Аудио#4: English: DTS-HD MA 5.1 / 48 kHz / 2262 kbps / 24-bit (DTS Core: 5.1 / 48 kHz / 1509 kbps / 24-bit / DN -4dB).
General
ID : 1 (0x1)
Complete name : /etc/seedbox/home/kep/data/Thirteenth.Floor.1999.BDRemux.HDTracker/BDMV/STREAM/00000.m2ts
Format : BDAV
Format/Info : Blu-ray Video
File size : 23.3 GiB
Duration : 1h 40mn
Overall bit rate mode : Variable
Overall bit rate : 33.2 Mbps
Maximum Overall bit rate : 35.5 Mbps

Video
ID : 4113 (0x1011)
Menu ID : 1 (0x1)
Format : AVC
Format/Info : Advanced Video Codec
Format profile : High@L4.1
Format settings, CABAC : Yes
Format settings, ReFrames : 2 frames
Codec ID : 27
Duration : 1h 40mn
Bit rate mode : Variable
Width : 1 920 pixels
Height : 1 080 pixels
Display aspect ratio : 16:9
Frame rate : 23.976 fps
Color space : YUV
Chroma subsampling : 4:2:0
Bit depth : 8 bits
Scan type : Progressive

Audio #1
ID : 4352 (0x1100)
Menu ID : 1 (0x1)
Format : DTS
Format/Info : Digital Theater Systems
Format profile : MA / Core
Mode : 16
Format settings, Endianness : Big
Muxing mode : Stream extension
Codec ID : 134
Duration : 1h 40mn
Bit rate mode : Variable
Bit rate : Unknown / 1 509 Kbps
Channel count : 6 channels
Channel positions : Front: L C R, Side: L R, LFE
Sampling rate : 48.0 KHz
Bit depth : 24 bits
Compression mode : Lossless / Lossy
Language : Russian

Audio #2
ID : 4353 (0x1101)
Menu ID : 1 (0x1)
Format : AC-3
Format/Info : Audio Coding 3
Mode extension : CM (complete main)
Format settings, Endianness : Big
Codec ID : 129
Duration : 1h 40mn
Bit rate mode : Constant
Bit rate : 384 Kbps
Channel count : 6 channels
Channel positions : Front: L C R, Side: L R, LFE
Sampling rate : 48.0 KHz
Bit depth : 16 bits
Compression mode : Lossy
Stream size : 276 MiB (1%)
Language : Russian

Audio #3
ID : 4354 (0x1102)
Menu ID : 1 (0x1)
Format : AC-3
Format/Info : Audio Coding 3
Mode extension : CM (complete main)
Format settings, Endianness : Big
Codec ID : 129
Duration : 1h 40mn
Bit rate mode : Constant
Bit rate : 448 Kbps
Channel count : 6 channels
Channel positions : Front: L C R, Side: L R, LFE
Sampling rate : 48.0 KHz
Bit depth : 16 bits
Compression mode : Lossy
Stream size : 322 MiB (1%)
Language : Russian

Audio #4
ID : 4355 (0x1103)
Menu ID : 1 (0x1)
Format : DTS
Format/Info : Digital Theater Systems
Format profile : MA / Core
Mode : 16
Format settings, Endianness : Big
Muxing mode : Stream extension
Codec ID : 134
Duration : 1h 40mn
Bit rate mode : Variable
Bit rate : Unknown / 1 509 Kbps
Channel count : 6 channels
Channel positions : Front: L C R, Side: L R, LFE
Sampling rate : 48.0 KHz
Bit depth : 24 bits
Compression mode : Lossless / Lossy
Language : English

Text #1
ID : 4608 (0x1200)
Menu ID : 1 (0x1)
Format : PGS
Codec ID : 144
Delay relative to video : 1s 1ms
Language : Russian

Text #2
ID : 4609 (0x1201)
Menu ID : 1 (0x1)
Format : PGS
Codec ID : 144
Language : English



Скачать Тринадцатый этаж через торрент http://i3-imageban-ru.translate.goog/out/2014/01/26/82fe5064b546c1b9d09f901fdb047b03.png Скачать, смотреть онлайн Тринадцатый этаж бесплантно в хорошем качестве Описание: На тринадцатом этаже компьютерной корпорации была разработана совершенная модель виртуальной реальности, создание которой ... 10 10 5
Info! Золотая раздача, скачанное не засчитывается.
Торрент: Зарегистрирован [2014-01-26 17:40] · скачан: 11 раз
Статус: √ проверено
Размер: 23.29 GB
Как cкачать? Как скачать Тринадцатый этаж через торрент | UTorrent

% Раздел Тема Автор DL S | L
Фильмы (HD 720p, 1080p) (48-60 fps) [ 4.83 GB ] Тринадцатый этаж / The Thirteenth Floor | Дубляж | 720p / 60 FPS slaventi-69 Скачать
1 | 0
Фильмы (HD 720p, 1080p) (48-60 fps) [ 10.58 GB ] Тринадцатый этаж / The Thirteenth Floor | Дубляж | 1080p / 60 FPS -Lexx- Скачать
3 | 0

28-11-2019 20:33  


Отключить вcю реклaмy на сайте, в т.ч. и в плеере онлайн просмотра!

    Дорогой пользователь! Огромная просьба, поблагодарите релизера, оцените раздачу и оставьте свои комментарий, если Вы скачали Тринадцатый этаж через торрент бесплатно!!
    Комментировать посты могут только пользователи прошедшие не сложную регистрацию
    Показать сообщения:    


    Тринадцатый этаж через торрент
    Скачать бесплатно Тринадцатый этаж
    Тринадцатый этаж скачать торрент
    Тринадцатый этаж смотреть онлайн
    Cкачать фильм Тринадцатый этаж бесплатно
    Тринадцатый этаж скачать торрент в хорошем качестве
    Тринадцатый этаж смотреть онлайн бесплатно в хорошем качестве
    Вы не можете начинать темы
    Вы не можете отвечать на сообщения
    Вы не можете редактировать свои сообщения
    Вы не можете удалять свои сообщения
    Вы не можете голосовать в опросах
    Вы не можете прикреплять файлы к сообщениям
    Вы можете скачивать файлы
    Тринадцатый этаж / The Thirteenth Floor [1999 г., фантастика, триллер, детектив, BD-Remux, Дубляж, DVO, AVO] смотреть онлайн, скачать торрент picoco.icu