Marvel's Avengers Deluxe Edition (супер цена) 159р. Внимание количество ограничено!!!

2 сезон

iTunes

iTunes

1

iTunes

iTunes

iTunes

WEBRip

iTunes

30
pack

Новость дня

ВАЖНО

!!Акция!!

Alien_RageХит недели

RePack

Horizon Zero Dawn

ИГРА 18+

pack

RePack

jed

!!Акция!!

Alien_Rage

RePack

fifa19

RePack

Assassins Creed: Odyssey

RePack

NEED FOR SPEED™ PAYBACK

4 сезон

9 сезон

Бесстыжие 9 сезон

Все сериалы

все сериалы на PB.wtf

RePack

FAR CRY 5
  

Арн: Рыцарь-тамплиер / Arn - Tempelriddaren (Петер Флинт / Peter Flinth) [2007, боевик, драма, мелодрама, BDRip] [MVO] (Лицензия) piratbit.org

Арн: Рыцарь-тамплиер через торрент piratbit.org

Размер: 1.47 GB | Добавлен: 6 лет 7 мес. назад | Торрент скачан:339 раз
Скачать  

26-01-2014 19:07 Арн: Рыцарь-тамплиер Скачать торрент  

Арн: Рыцарь-тамплиер / Arn - Tempelriddaren
Год выпуска: 2007
Страна: Германия, Дания, Швеция, Финляндия, Великобритания, Норвегия
Слоган: «In a Time of War and Betrayal, a Hero Will Rise»
Жанр: боевик, драма, мелодрама, приключения, военный
Продолжительность: 02:18:25
Перевод: Профессиональный (многоголосый, закадровый) [Лицензия]
Русские субтитры: нет

Режиссер: Петер Флинт / Peter Flinth
Сценарий: Ян Гиллоу / Jan Guillou, Ганс Гуннарссон / Hans Gunnarsson
Продюсер: Вальдемар Бергендаль / Waldemar Bergendahl, Элистер Маклин-Кларк / Alistair MacLean-Clark, Жан Марнелл / Jan Marnell, Стив Милн / Steve Milne, Лейф Молин / Leif Mohlin
Оператор: Эрик Кресс / Eric Kress
Композитор: Томас Кантелинен / Tuomas Kantelinen

В ролях: Йоаким Наттерквист (Arn Magnusson), София Хелин (Cecilia Algotsdotter), Стеллан Скарсгард (Birger Brosa), Микаэл Нюквист (Magnus Folkesson), Mirja Turestedt (Sigrid), Морган Аллинг (Eskil Magnusson), Свен-Бертиль Таубе (Bishop Bengt), Биби Андерссон (Mother Rikissa), Fanny Risberg (Cecilia 'Blanka' Ulfsdotter), Густаф Скарсгард (King Knut Eriksson), Саймон Кэллоу (Father Henry), Венсан Перес (Brother Guilbert)
Описание: Арн, сын высокопоставленного шведского дворянина, заканчивает свое монастырское обучение и, в наказание за свою запретную любовь, отправляется в Священные Земли в качестве рыцаря-тамплиера. Там ему суждено принять участие в битве при Хатине и других событиях, связанных с тяжёлыми временами Иерусалимского королевства...

kinopoisk.ru: 6.980 (1 657)
imdb.com: 6.40 (7 810)
Раздача от группы:
Качество: BDRip
Формат: AVI
Видео кодек: XviD
Аудио кодек: AC3
Видео: 720x304 (2.37:1), 24.000 fps, XviD build 50 ~1123 kbps avg, 0.21 bit/pixel
Аудио: 48 kHz, AC3 Dolby Digital, 3/2 (L,C,R,l,r) + LFE ch, ~384.00 kbps avg
Король Эрик Йедвардссон был убит, согласно поздним шведским источникам, не Карлом Сверкерссоном, а датчанином Магнусом Хенриксеном, имевшим притязания на шведский трон.
В заключительной части фильма тамплиеры под умелым командованием Арна побеждают Саладина. На самом деле, основную роль в победе при Монжизаре (25 ноября 1177) сыграли силы Иерусалимского королевства под предводительством юного короля Балдуина IV и Рено де Шатийона.
Великим магистром ордена тамплиеров в описываемое время (1177 год) был не Арно де Торроха, как показано в фильме, а Одо де Сент-Аман.
Шведские части фильма снимались в основном в провинции Вестергётланд, в то время как зарубежные сцены сняты в Марокко и Шотландии.
General
Complete name : E:INTERNETÀðí Ðûöàðü-òàìïëèåð.2007.BDRip.avi
Format : AVI
Format/Info : Audio Video Interleave
File size : 1.47 GiB
Duration : 2h 18mn
Overall bit rate : 1 517 Kbps
Writing application : VirtualDubMod 1.5.10.2 (build 2540/release)
Writing library : VirtualDubMod build 2540/release

Video
ID : 0
Format : MPEG-4 Visual
Format profile : Advanced Simple@L5
Format settings, BVOP : 1
Format settings, QPel : No
Format settings, GMC : No warppoints
Format settings, Matrix : Custom
Codec ID : XVID
Codec ID/Hint : XviD
Duration : 2h 18mn
Bit rate : 1 124 Kbps
Width : 720 pixels
Height : 304 pixels
Display aspect ratio : 2.35:1
Frame rate : 24.000 fps
Color space : YUV
Chroma subsampling : 4:2:0
Bit depth : 8 bits
Scan type : Progressive
Compression mode : Lossy
Bits/(Pixel*Frame) : 0.214
Stream size : 1.09 GiB (74%)
Writing library : XviD 1.2.1 (UTC 2008-12-04)

Audio
ID : 1
Format : AC-3
Format/Info : Audio Coding 3
Mode extension : CM (complete main)
Codec ID : 2000
Duration : 2h 18mn
Bit rate mode : Constant
Bit rate : 384 Kbps
Channel(s) : 6 channels
Channel positions : Front: L C R, Side: L R, LFE
Sampling rate : 48.0 KHz
Bit depth : 16 bits
Compression mode : Lossy
Stream size : 380 MiB (25%)
Alignment : Split accross interleaves
Interleave, duration : 42 ms (1.00 video frame)
Interleave, preload duration : 500 ms
piratbit.org



Скачать Арн: Рыцарь-тамплиер через торрент http://i33.fastpic.ru/big/2014/0126/b2/8499586cbeeb5de82855b432b90775b2.png Скачать фильм Арн: Рыцарь-тамплиер через торрент бесплантно в хорошем качестве Описание: Арн, сын высокопоставленного шведского дворянина, заканчивает свое монастырское обучение и, в наказание за свою запретную ... 10 10 10
Info! Золотая раздача, скачанное не засчитывается.
Торрент: Зарегистрирован [2014-01-26 19:07] · скачан: 339 раз
Статус: √ проверено
Размер: 1.47 GB
Как cкачать? Как скачать Арн: Рыцарь-тамплиер через торрент | qTorrent

% Раздел Тема Автор DL S | L
Фильмы [HD 720p, 1080p] (Хороший звук DUB, MVO) [ 13.02 GB ] Арн: Рыцарь-тамплиер / Arn: Tempelriddaren [2007 Историческая BDRip 1080p многоголосый Kravec] Артронах Скачать
1 | 0
Фильмы 2006-2008 [ 2.62 GB ] Арн: Рыцарь-тамплиер / Arn - Tempelriddaren [2007 военный BDRip] snouman82 Скачать
1 | 0
Фильмы [HD 720p, 1080p] (Хороший звук DUB, MVO) [ 4.37 GB ] Арн: Рыцарь-тамплиер / Arn - Tempelriddaren [2007 военный BDRip720p] Delia Скачать
1 | 0
Фильмы 2006-2008 [ 2.05 GB ] Арн: Рыцарь-Тамплиер / Arn - Tempelriddaren [2007 военный HDRip] DarkShade Скачать
1 | 0

28-11-2019 20:33  

Отключить всю рекламу на сайте

    Дорогой пользователь! Огромная просьба, поблагодарите релизера, оцените раздачу и оставьте свои комментарий, если Вы скачали Арн: Рыцарь-тамплиер через торрент бесплатно! Внесите свою лепту в развитие PiratBit!
    Комментировать посты могут только пользователи прошедшие не сложную регистрацию
    Показать сообщения:    

    Арн: Рыцарь-тамплиер через торрент
    Скачать бесплатно Арн: Рыцарь-тамплиер
    Арн: Рыцарь-тамплиер скачать торрент
    Арн: Рыцарь-тамплиер смотреть онлайн
    Cкачать фильм Арн: Рыцарь-тамплиер бесплатно
    Арн: Рыцарь-тамплиер скачать торрент в хорошем качестве
    Арн: Рыцарь-тамплиер смотреть онлайн бесплатно в хорошем качестве


    Вы не можете начинать темы
    Вы не можете отвечать на сообщения
    Вы не можете редактировать свои сообщения
    Вы не можете удалять свои сообщения
    Вы не можете голосовать в опросах
    Вы не можете прикреплять файлы к сообщениям
    Вы можете скачивать файлы