Достать ножи: Стеклянная луковица

MVO

Добыча

Дубляж

Уэнсдэй

1 сезон

Тор

Дубляж

13 клиническая

1 сезон

Жестокая ночь

MVO

Одни из нас

1 сезон

Deluxe

pack

Рекомендуем

30

Пиратка

ВАЖНО

ВАЖНО

Ghostwire

Пиратка

jed

RePack

nioh2

RePack

RDR2

RePack

NEED FOR SPEED™ PAYBACK

RePack

скачать торрент

Кинопоиск HD

Острые козырьки 6 сезон

6 сезон

FAR CRY 6

RePack

скачать торрент

Лицензия

скачать торрент

MVO

1

1 сезон

скачать торрент

1 сезон

скачать торрент

Лицензия

  

Армагеддец / The World's End (Эдгар Райт / Edgar Wright) [2013, фантастика, боевик, комедия, BDRemux, Дубляж] [Лизензия / iTunes]

Армагеддец через торрент piratbit.org

Размер: 23.84 GB | Добавлен: 9 лет назад | Торрент скачан:42 раза
Смотреть онлайн | Скачать | Поддержите нас   

28-11-2013 11:46 Армагеддец Скачать торрент  

Армагеддец / The World's End

Год выпуска : 2013
Страна: Великобритания
Жанр: Фантастика, боевик, комедия

Продолжительность: 01:49:07
Перевод: Дубляж [Лицензия / iTunes]
Субтитры: Русские, Английские
Режиссер: Эдгар Райт / Edgar Wright
В ролях: Саймон Пегг (Gary King), Ник Фрост (Andy Knightley), Пэдди Консидайн (Steven Prince), Мартин Фриман (Oliver Chamberlain), Эдди Марсан (Peter Page), Розамунд Пайк (Sam Chamberlain), Пирс Броснан (Guy Shepherd), Дэвид Брэдли (Basil), Стив Орам (Motorcycle Policeman), Томас Ло (Young Gary), Захари Бэйлесс (Young Andy), Джаспер Ливайн (Young Steven)
Описание: Их подвиг был бы увековечен в Книге рекордов Гиннесса, если бы они знали, что Гиннесс - это не только пиво. Пятеро друзей ставят себе высокую цель - организовать грандиозный забег по барам. Опасности подстерегают их на каждом шагу: красотка, от которой сходила с ума вся школа, так и тянет налево, в то время как справа надвигается таинственная угроза. В результате алкомарафон плавно переходит в реальный Армагеддец...
Рейтинг

imdb.com: 7.40 (40 116)
MPAA: R - Лицам до 17 лет обязательно присутствие взрослого
Качество: BDRemux
Формат: MKV
Видео кодек: AVC
Аудио кодек: AC3/DTS
Видео: AVC, 1920x1080 (16:9), 27784 kbps, 23,976 fps
Аудио №1: русский / AC3 / 5.1 / 48 kHz / 384 kbps / 16 bit
Аудио №2: английский / DTS-HD / 5.1 / 48 kHz / 2481 kbps / 24 bit (Core: 5.1 / 48 kHz / 1510 kbps / 24 bit)

General
Unique ID : 177939787774680789165741786735270849296 (0x85DDF4E0F0B8334C8E630DF6E57E6B10)
Complete name : H:Armageddetc.2013.MPEG-4-AVC.BluRay-Remux(1080p).mkv.mkv
Format : Matroska
Format version : Version 4 / Version 2
File size : 23.8 GiB
Duration : 1h 49mn
Overall bit rate mode : Variable
Overall bit rate : 31.3 Mbps
Encoded date : UTC 2010-02-22 21:41:31
Writing application : mkvmerge v5.9.0 ('On The Loose') built on Dec 9 2012 15:37:01
Writing library : libebml v1.3.0 + libmatroska v1.4.0

Video
ID : 1
Format : AVC
Format/Info : Advanced Video Codec
Format profile : High@L4.1
Format settings, CABAC : Yes
Format settings, ReFrames : 4 frames
Format settings, GOP : M=3, N=12
Codec ID : V_MPEG4/ISO/AVC
Duration : 1h 49mn
Bit rate mode : Variable
Bit rate : 27.8 Mbps
Maximum bit rate : 35.0 Mbps
Width : 1 920 pixels
Height : 1 080 pixels
Display aspect ratio : 16:9
Frame rate : 23.976 fps
Color space : YUV
Chroma subsampling : 4:2:0
Bit depth : 8 bits
Scan type : Progressive
Bits/(Pixel*Frame) : 0.559
Stream size : 21.2 GiB (89%)
Language : English
Default : Yes
Forced : Yes

Audio #1
ID : 2
Format : AC-3
Format/Info : Audio Coding 3
Mode extension : CM (complete main)
Codec ID : A_AC3
Duration : 1h 49mn
Bit rate mode : Constant
Bit rate : 384 Kbps
Channel(s) : 6 channels
Channel positions : Front: L C R, Side: L R, LFE
Sampling rate : 48.0 KHz
Bit depth : 16 bits
Compression mode : Lossy
Stream size : 300 MiB (1%)
Language : Russian
Default : Yes
Forced : Yes

Audio #2
ID : 3
Format : DTS
Format/Info : Digital Theater Systems
Format profile : MA / Core
Codec ID : A_DTS
Duration : 1h 49mn
Bit rate mode : Variable
Bit rate : 2 482 Kbps / 1 510 Kbps
Channel(s) : 6 channels
Channel positions : Front: L C R, Side: L R, LFE
Sampling rate : 48.0 KHz
Bit depth : 24 bits
Compression mode : Lossless / Lossy
Language : English
Default : No
Forced : No

Text #1
ID : 4
Format : UTF-8
Codec ID : S_TEXT/UTF8
Codec ID/Info : UTF-8 Plain Text
Language : Russian
Default : No
Forced : No

Text #2
ID : 5
Format : UTF-8
Codec ID : S_TEXT/UTF8
Codec ID/Info : UTF-8 Plain Text
Language : English
Default : No
Forced : No

Menu
00:00:00.000 : en:00:00:00.000
00:05:38.296 : en:00:05:38.296
00:10:33.007 : en:00:10:33.007
00:15:34.767 : en:00:15:34.767
00:19:56.695 : en:00:19:56.695
00:25:23.981 : en:00:25:23.981
00:30:07.180 : en:00:30:07.180
00:36:09.751 : en:00:36:09.751
00:42:40.266 : en:00:42:40.266
00:46:17.233 : en:00:46:17.233
00:50:20.017 : en:00:50:20.017
00:57:20.729 : en:00:57:20.729
01:02:29.204 : en:01:02:29.204
01:06:30.737 : en:01:06:30.737
01:12:17.124 : en:01:12:17.124
01:18:37.004 : en:01:18:37.004
01:23:51.193 : en:01:23:51.193
01:26:45.784 : en:01:26:45.784
01:35:16.753 : en:01:35:16.753
01:42:20.217 : en:01:42:20.217



Скачать Армагеддец через торрент http://i5-imageban-ru.translate.goog/out/2013/11/28/e3e35df07822a3734dca9e3731e949f8.png Скачать, смотреть онлайн Армагеддец бесплантно в хорошем качестве Описание: Их подвиг был бы увековечен в Книге рекордов Гиннесса, если бы они знали, что Гиннесс - это не только пиво. Пятеро друзей ставят ... 10 10 11
Info! Золотая раздача, скачанное не засчитывается.
Торрент: Зарегистрирован [2014-01-27 18:00] · скачан: 42 раз
Статус: √ проверено
Размер: 23.84 GB
Как cкачать? Как скачать Армагеддец через торрент | UTorrent

% Раздел Тема Автор DL S | L
Фильмы с авторской озвучкой [ 2.19 GB ] Конец света / Армагеддец / The World's End | AVO | HDRip killermax2013 Скачать
1 | 0
Фильмы 2013 [DVDrip, WEB-DLRip, HDrip] [ 2.18 GB ] Армагеддец / The World's End | | BDRip-AVC potroks Скачать
1 | 0
Фильмы 2013 [DVDrip, WEB-DLRip, HDrip] [ 2.05 GB ] Армагеддец / The World's End | iTunes | HDRip, DUB лисяра Скачать
1 | 0
Фильмы [HD 720p, 1080p] (Хороший звук DUB, MVO) [ 7.3 GB ] Армагеддец / The World's End | iTunes | 720p, DUB лисяра Скачать
1 | 0

28-11-2019 20:33  


Отключить вcю реклaмy на сайте, в т.ч. и в плеере онлайн просмотра!

    Дорогой пользователь! Огромная просьба, поблагодарите релизера, оцените раздачу и оставьте свои комментарий, если Вы скачали Армагеддец через торрент бесплатно!!
    Комментировать посты могут только пользователи прошедшие не сложную регистрацию
    Показать сообщения:    


    Армагеддец через торрент
    Скачать бесплатно Армагеддец
    Армагеддец скачать торрент
    Армагеддец смотреть онлайн
    Cкачать фильм Армагеддец бесплатно
    Армагеддец скачать торрент в хорошем качестве
    Армагеддец смотреть онлайн бесплатно в хорошем качестве
    Вы не можете начинать темы
    Вы не можете отвечать на сообщения
    Вы не можете редактировать свои сообщения
    Вы не можете удалять свои сообщения
    Вы не можете голосовать в опросах
    Вы не можете прикреплять файлы к сообщениям
    Вы можете скачивать файлы
    Армагеддец / The World's End [2013, фантастика, боевик, комедия, BDRemux, Дубляж] [Лизензия / iTunes] смотреть онлайн, скачать торрент picoco.icu