Достать ножи: Стеклянная луковица

MVO

Добыча

Дубляж

Уэнсдэй

1 сезон

Тор

Дубляж

13 клиническая

1 сезон

Жестокая ночь

MVO

Одни из нас

1 сезон

Deluxe

pack

Рекомендуем

30

Пиратка

ВАЖНО

ВАЖНО

Ghostwire

Пиратка

jed

RePack

nioh2

RePack

RDR2

RePack

NEED FOR SPEED™ PAYBACK

RePack

скачать торрент

Кинопоиск HD

Острые козырьки 6 сезон

6 сезон

FAR CRY 6

RePack

скачать торрент

Лицензия

скачать торрент

MVO

1

1 сезон

скачать торрент

1 сезон

скачать торрент

Лицензия

  

Зловещие мертвецы: Черная книга / Evil Dead (Федерико Альварес) [2013 г., ужасы, BDRemux, Дубляж + Оригинал+VO+AVO]

Зловещие мертвецы: Черная книга через торрент piratbit.org

Размер: 22.74 GB | Добавлен: 9 лет назад | Торрент скачан:6 раз
Смотреть онлайн | Скачать | Поддержите нас   

17-07-2013 14:23 Зловещие мертвецы: Черная книга Скачать торрент  


Зловещие мертвецы: Черная книга / Evil Dead

«Уже не остановить»


  • Год выпуска:2013
  • Страна: США
  • Жанр:ужасы
  • Продолжительность: 01:31:18
  • Перевод:Профессиональный (полное дублирование)[Лицензия]

  • Субтитры: Русский (full: Blu-ray CEE, MartinaG), английский (full, SDH, SDH Colored, Commentary) [Вшитые отключаемые]
    • Режиссер: Федерико Альварес / Federico Alvarez
    • Продюсер:Брюс Кэмпбелл / Bruce Campbell, Сэм Рэйми / Sam Raimi, Роберт Дж. Тейперт / Robert G. Tapert, Сэлли Кэмпбелл / Sally Campbell, Джозеф Дрэйк / Joseph Drake
    • Сценарий:Федерико Альварес / Federico Alvarez, Родольфо Саягес / Rodolfo Sayagues, Сэм Рэйми / Sam Raimi

  • В ролях:Джейн Леви (Mia), Шайло Фернандес (David), Лу Тэйлор Пуччи (Eric), Джессика Лукас (Olivia), Элизабет Блэкмор (Natalie), Феникс Коннолли (Teenager), Джим МакЛарти (Harold), Сиан Дэвис (Old Woman), Стефен Баттерворф (Toothless Redneck), Карл Виллетц (Long Haired Redneck), Рендал Уилсон (Abomination Mia), Руперт Дегас (Demon, озвучка)
    • Описание:
      Молодая женщина Миа, пытающаяся избавиться от наркозависимости, отправляется вместе с братом и группой друзей в удалённую хижину, где они открывают Книгу мёртвых, что приводит к опасности и ужасу.

  • Рейтинг
    kinopoisk.ru: 6.407 (9196)
    imdb.com: 7.00 (32 127)
    MPAA: R - Лицам до 17 лет обязательно присутствие взрослого
    • Качество:BD Remux
    • Формат: MKV
    • Видео кодек:AVC
    • Аудио кодек: DTS /AC3
    • Видео: MPEG4_AVC/H.264, 1920x1080 (16:9), ~24893 kbps, 23.976 fps
    • Аудио №1: русский / AC3 / 5.1 / 48 kHz / 640 kbps / 16 bit || [Русский - дублированный / Blu-ray CEE]
      Аудио №2: русский / DTS / 5.1 / 48 kHz / 1510 kbps / 24 bit || [Русский - VO / Алексей «Doctor_Joker» Матвеев] Присутствует ненормативная лексика.
      Аудио №3: русский / DTS-HD / 5.1 / 48 kHz / 1560 kbps / 24 bit (Core: 5.1 / 48 kHz / 1510 kbps / 24 bit) || [Русский - AVO / А. Карповский] Присутствует ненормативная лексика.
      Аудио №4: английский / DTS-HD / 5.1 / 48 kHz / 1560 kbps / 24 bit (Core: 5.1 / 48 kHz / 1510 kbps / 24 bit) [Английский - оригинал]
      Аудио №5: английский / AC3 / 5.1 / 48 kHz / 640 kbps / 16 bit[Английский - Descriptive]
      Аудио №6: английский / AC3 / 2.0 / 48 kHz / 192 kbps / 16 bit[Английский - Commentary]

    Полное имя : D:Зловещие.мертвецы.Черная.книга-Evil.Dead.(2013).BDRemux.[1080p].mkv
    Формат : Matroska
    Версия формата : Version 2
    Размер файла : 22,7 Гбайт
    Продолжительность : 1 ч. 31 м.
    Режим общего битрейта : Переменный
    Общий поток : 35,7 Мбит/сек
    Название фильма :
    Дата кодирования : UTC 2013-07-17 02:01:44
    Программа кодирования : mkvmerge v5.7.0 ('The Whirlwind') built on Aug 7 2012 14:11:40
    Библиотека кодирования : libebml v1.2.3 + libmatroska v1.3.0

    Видео
    Идентификатор : 1
    Формат : AVC
    Формат/Информация : Advanced Video Codec
    Профиль формата : High@L4.1
    Параметр CABAC формата : Да
    Параметр ReFrames формата : 2 кадра
    Параметр GOP формата : M=1, N=10
    Идентификатор кодека : V_MPEG4/ISO/AVC
    Продолжительность : 1 ч. 31 м.
    Вид битрейта : Переменный
    Битрейт : 28,8 Мбит/сек
    Ширина : 1920 пикселей
    Высота : 1080 пикселей
    Соотношение сторон : 16:9
    Режим частоты кадров : Постоянный
    Частота кадров : 23,976 кадра/сек
    Цветовое пространство : YUV
    Субдискретизация насыщенности : 4:2:0
    Битовая глубина : 8 бит
    Тип развёртки : Прогрессивная
    Бит/(Пиксели*Кадры) : 0.580
    Размер потока : 18,4 Гбайт (81%)
    Заголовок : Зловещие.мертвецы.Черная.книга-Evil.Dead.(2013).BDRemux.[1080p]
    Язык : English
    Default : Да
    Forced : Нет

    Аудио #1
    Идентификатор : 2
    Формат : AC-3
    Формат/Информация : Audio Coding 3
    Расширение режима : CM (complete main)
    Параметр Endianness формата : Big
    Идентификатор кодека : A_AC3
    Продолжительность : 1 ч. 31 м.
    Вид битрейта : Постоянный
    Битрейт : 640 Кбит/сек
    Каналы : 6 каналов
    Расположение каналов : Front: L C R, Side: L R, LFE
    Частота : 48,0 КГц
    Битовая глубина : 16 бит
    Метод сжатия : С потерями
    Размер потока : 418 Мбайт (2%)
    Заголовок : AC3 5.1 / 640 kbps / Дубляж (Blu-ray CEE)
    Язык : Russian
    Default : Да
    Forced : Нет

    Аудио #2
    Идентификатор : 3
    Формат : DTS
    Формат/Информация : Digital Theater Systems
    Идентификатор кодека : A_DTS
    Продолжительность : 1 ч. 31 м.
    Вид битрейта : Постоянный
    Битрейт : 1510 Кбит/сек
    Каналы : 6 каналов
    Расположение каналов : Front: L C R, Side: L R, LFE
    Частота : 48,0 КГц
    Битовая глубина : 24 бит
    Метод сжатия : С потерями
    Размер потока : 986 Мбайт (4%)
    Заголовок : DTS 5.1 / 1536 kbps / VO (Алексей "Doctor_Joker" Матвеев)
    Язык : Russian
    Default : Нет
    Forced : Нет

    Аудио #3
    Идентификатор : 4
    Формат : DTS
    Формат/Информация : Digital Theater Systems
    Профиль формата : MA / Core
    Идентификатор кодека : A_DTS
    Продолжительность : 1 ч. 31 м.
    Вид битрейта : Переменный
    Битрейт : 1561 Кбит/сек / 1510 Кбит/сек
    Каналы : 6 каналов
    Расположение каналов : Front: L C R, Side: L R, LFE
    Частота : 48,0 КГц
    Битовая глубина : 24 бит
    Метод сжатия : Без потерь / Lossy
    Заголовок : DTS-HD MA 5.1 / 4020 kbps / AVO (А. Карповский)
    Язык : Russian
    Default : Нет
    Forced : Нет

    Аудио #4
    Идентификатор : 5
    Формат : DTS
    Формат/Информация : Digital Theater Systems
    Профиль формата : MA / Core
    Идентификатор кодека : A_DTS
    Продолжительность : 1 ч. 31 м.
    Вид битрейта : Переменный
    Битрейт : 1561 Кбит/сек / 1510 Кбит/сек
    Каналы : 6 каналов
    Расположение каналов : Front: L C R, Side: L R, LFE
    Частота : 48,0 КГц
    Битовая глубина : 24 бит
    Метод сжатия : Без потерь / Lossy
    Заголовок : DTS-HD MA 5.1 / 3956 kbps / Original
    Язык : English
    Default : Нет
    Forced : Нет

    Аудио #5
    Идентификатор : 6
    Формат : AC-3
    Формат/Информация : Audio Coding 3
    Расширение режима : CM (complete main)
    Параметр Endianness формата : Big
    Идентификатор кодека : A_AC3
    Продолжительность : 1 ч. 31 м.
    Вид битрейта : Постоянный
    Битрейт : 640 Кбит/сек
    Каналы : 6 каналов
    Расположение каналов : Front: L C R, Side: L R, LFE
    Частота : 48,0 КГц
    Битовая глубина : 16 бит
    Метод сжатия : С потерями
    Размер потока : 418 Мбайт (2%)
    Заголовок : AC3 5.1 / 640 kbps / Descriptive
    Язык : English
    Default : Нет
    Forced : Нет

    Аудио #6
    Идентификатор : 7
    Формат : AC-3
    Формат/Информация : Audio Coding 3
    Профиль формата : Dolby Digital
    Расширение режима : CM (complete main)
    Параметр Endianness формата : Big
    Идентификатор кодека : A_AC3
    Продолжительность : 1 ч. 31 м.
    Вид битрейта : Постоянный
    Битрейт : 192 Кбит/сек
    Каналы : 2 канала
    Расположение каналов : Front: L R
    Частота : 48,0 КГц
    Битовая глубина : 16 бит
    Метод сжатия : С потерями
    Размер потока : 125 Мбайт (1%)
    Заголовок : AC3 2.0 / 192 kbps / Commentary
    Язык : English
    Default : Нет
    Forced : Нет

    Текст #1
    Идентификатор : 8
    Формат : UTF-8
    Идентификатор кодека : S_TEXT/UTF8
    Идентификатор кодека/Информация : UTF-8 Plain Text
    Заголовок : Blu-ray CEE
    Язык : Russian
    Default : Нет
    Forced : Нет

    Текст #2
    Идентификатор : 9
    Формат : UTF-8
    Идентификатор кодека : S_TEXT/UTF8
    Идентификатор кодека/Информация : UTF-8 Plain Text
    Заголовок : MartinaG
    Язык : Russian
    Default : Нет
    Forced : Нет

    Текст #3
    Идентификатор : 10
    Формат : UTF-8
    Идентификатор кодека : S_TEXT/UTF8
    Идентификатор кодека/Информация : UTF-8 Plain Text
    Заголовок : Full
    Язык : English
    Default : Нет
    Forced : Нет

    Текст #4
    Идентификатор : 11
    Формат : UTF-8
    Идентификатор кодека : S_TEXT/UTF8
    Идентификатор кодека/Информация : UTF-8 Plain Text
    Заголовок : SDH
    Язык : English
    Default : Нет
    Forced : Нет

    Текст #5
    Идентификатор : 12
    Формат : UTF-8
    Идентификатор кодека : S_TEXT/UTF8
    Идентификатор кодека/Информация : UTF-8 Plain Text
    Заголовок : SDH (COLORED)
    Язык : English
    Default : Нет
    Forced : Нет

    Текст #6
    Идентификатор : 13
    Формат : UTF-8
    Идентификатор кодека : S_TEXT/UTF8
    Идентификатор кодека/Информация : UTF-8 Plain Text
    Заголовок : Commentary
    Язык : English
    Default : Нет
    Forced : Нет

    Меню
    00:00:00.000 : en:Chapter 1
    00:05:10.309 : en:Chapter 2
    00:09:46.085 : en:Chapter 3
    00:14:24.028 : en:Chapter 4
    00:18:34.028 : en:Chapter 5
    00:23:14.308 : en:Chapter 6
    00:30:38.044 : en:Chapter 7
    00:35:34.797 : en:Chapter 8
    00:40:36.474 : en:Chapter 9
    00:49:43.480 : en:Chapter 10
    00:55:24.237 : en:Chapter 11
    01:01:35.189 : en:Chapter 12
    01:08:35.778 : en:Chapter 13
    01:14:05.983 : en:Chapter 14
    01:17:24.972 : en:Chapter 15
    01:20:36.247 : en:Chapter 16
    Сценарий: Федерико Альварес / Federico Alvarez, Родольфо Саягес / Rodolfo Sayagues, Сэм Рэйми / Sam Raimi
    Продюсер: Брюс Кэмпбелл / Bruce Campbell, Сэм Рэйми / Sam Raimi, Роберт Дж. Тейперт / Robert G. Tapert, Сэлли Кэмпбелл / Sally Campbell, Джозеф Дрэйк / Joseph Drake
    Оператор: Аарон Мортон / Aaron Morton
    Композитор: Роке Баньос / Roque Baños

    Бюджет: $17 000 000
    Сборы в США: $54 239 856
    Сборы в России: $5 850 548
    Сборы в мире: $97 454 981

    Мировая премьера: 8 марта 2013
    Релиз на DVD: 13 августа 2013, «Columbia/Sony»
    Релиз на Blu-ray: 13 августа 2013, «Columbia/Sony»


    © Оформление&Постер by Vetal



  • Скачать Зловещие мертвецы: Черная книга через торрент http://5.firepic.org/5/images/2013-06/30/uke7812x0a98.png Скачать, смотреть онлайн Зловещие мертвецы: Черная книга бесплантно в хорошем качестве Описание:Молодая женщина Миа, пытающаяся избавиться от наркозависимости, отправляется вместе с братом и группой друзей в удалённую хижину, ... 8.9 10 11
    Info! Золотая раздача, скачанное не засчитывается.
    Торрент: Зарегистрирован [2014-01-28 11:04] · скачан: 6 раз
    Статус: √ проверено
    Размер: 22.74 GB
    Как cкачать? Как скачать Зловещие мертвецы: Черная книга через торрент | UTorrent

    % Раздел Тема Автор DL S | L
    Фильмы [HD 720p, 1080p] (Хороший звук DUB, MVO) [ 3.92 GB ] Зловещие мертвецы: Черная книга / Evil Dead | Дубляж | 1080p, HEVC, Дубляж Мичман37 Скачать
    1 | 0
    Фильмы (Blu-ray, BD-Remux, HDDVD) [ 24.09 GB ] Зловещие мертвецы: Черная книга / Evil Dead | Лицензия | BD Remux 1080p bober100 Скачать
    1 | 0
    Фильмы с авторской озвучкой [ 3.94 GB ] Зловещие мертвецы: Черная книга / Evil Dead | AVO | 720p от potroks potroks Скачать
    1 | 0
    Фильмы (HD 720p, 1080p) (48-60 fps) [ 9.74 GB ] Зловещие мертвецы: Черная книга / Evil Dead | Дубляж | 1080p 60fps, Дубляж Ворон Скачать
    1 | 1
    Фильмы [HD 720p, 1080p] (Хороший звук DUB, MVO) [ 13.48 GB ] Зловещие мертвецы: Черная книга / Evil Dead | Лицензия | 1080p, Дубляж - [Лицензия / BD CEE Ворон Скачать
    1 | 0
    Фильмы 2013 [DVDrip, WEB-DLRip, HDrip] [ 2.32 GB ] Зловещие мертвецы: Черная книга / Evil Dead | AVO | BDRip читерас Скачать
    1 | 0
    Фильмы 2013 [DVDrip, WEB-DLRip, HDrip] [ 2.05 GB ] Зловещие мертвецы: Черная книга / Evil Dead | Дубляж | HDRip, Дубляж, лицензия coc900 Скачать
    1 | 0

    28-11-2019 20:33  


    Отключить вcю реклaмy на сайте, в т.ч. и в плеере онлайн просмотра!

    18-07-2013 18:06 Зловещие мертвецы: Черная книга Скачать торрент  

    Чуваки встаньте на раздачу плиз. А то в хорошем качестве хочется посмотреть



      Дорогой пользователь! Огромная просьба, поблагодарите релизера, оцените раздачу и оставьте свои комментарий, если Вы скачали Зловещие мертвецы: Черная книга через торрент бесплатно!!
      Комментировать посты могут только пользователи прошедшие не сложную регистрацию
      Показать сообщения:    


      Зловещие мертвецы: Черная книга через торрент
      Скачать бесплатно Зловещие мертвецы: Черная книга
      Зловещие мертвецы: Черная книга скачать торрент
      Зловещие мертвецы: Черная книга смотреть онлайн
      Cкачать фильм Зловещие мертвецы: Черная книга бесплатно
      Зловещие мертвецы: Черная книга скачать торрент в хорошем качестве
      Зловещие мертвецы: Черная книга смотреть онлайн бесплатно в хорошем качестве
      Вы не можете начинать темы
      Вы не можете отвечать на сообщения
      Вы не можете редактировать свои сообщения
      Вы не можете удалять свои сообщения
      Вы не можете голосовать в опросах
      Вы не можете прикреплять файлы к сообщениям
      Вы можете скачивать файлы
      Зловещие мертвецы: Черная книга / Evil Dead [2013 г., ужасы, BDRemux, Дубляж + Оригинал+VO+AVO] смотреть онлайн, скачать торрент picoco.icu