новый адрес
Мега распродажа FORZA HORIZON 4 ULTIMATE+ВСЕ DLC+ОНЛАЙН всего за 499р. 349 руб. (супер цена). Внимание количество ограничено!!!

iTunes

1+1

iTunes

мы

iTunes

1

iTunes

Чернобыль

iTunes

Ральф против интернета

Лицензия

ПШазам

Лицензия

Игра престолов

Лицензия

30
pack

ВАЖНО

!!Акция!!

Alien_RageХит недели

RePack

Resident Evil 21

ИГРА 18+

pack

RePack

Metro:Exodus

!!Акция!!

Alien_Rage

RePack

fifa19

RePack

Assassins Creed: Odyssey

RePack

NEED FOR SPEED™ PAYBACK

3 сезон

9 сезон

Бесстыжие 9 сезон

Все сериалы

все сериалы на PB.wtf

RePack

FAR CRY 5
Ребята, катастрофически не хватает 1900р. для оплаты серверов за Октябрь (всвязи с блокировками трафик упал в 3 раза), 1-2р., выручайте.
  

Серфинг на Таити 3D / The Ultimate Wave Tahiti (Стивен Лоу) [2010 г., Документальный, видовой, спорт, серфин, BDRip 1080p, Профессиональный одноголосый] piratbit.org

Серфинг на Таити 3D через торрент piratbit.org

Размер: 4.22 GB | Добавлен: 5 лет 9 мес. назад | Торрент скачан:81 раз
Скачать  

29-01-2014 12:39 Серфинг на Таити 3D Скачать торрент  

Серфинг на Таити 3D / The Ultimate Wave Tahiti

Год выпуска: 2010
Страна: США
Выпущено: Stephen Low Company
Жанр: Документальный, видовой, спорт, серфин
Продолжительность: 00:45:52
Перевод: Профессиональный одноголосый

Режиссер: Стивен Лоу
Продюссер: Пьетро Л. Серапилья, Джефф Катлер, Терри Харди
Сценарий: Александр Лоу
Премьера в мире: 12 февраля 2010

IMDB 6.60 (201)


В ролях: Майкл Ханрахан, Келли Слэйтер, Рамина Ван Бастолеа

Описание: Действие разворачивается на острове Таити, в местечке Teahupoo,знаменитом своими убийственно быстрыми и тяжелыми волнами. Туда приезжает 9-кратный Чемпион Мира и лучший серфер всех времен — Келли Слейтер.В ожидании идеальных погодных условий, Келли не теряет время и под руководством таитского серф-гуру Раймана Ван Басталейра исследует остров во всех его проявлениях. Общение Келли и Райманы показывает, как страсть к океану объединяет людей из разных миров, что увлекает их в серфинге и заставляет идти на риск ради самых лучших волн. Создатели фильма не только раскрывают секреты философии серфинга, но и рассказывают о его природе: например, как образуются волны и формируются острова.

Доп. информация:
Half SideBySide - Горизонтальная анаморфная стереопара

Качество: BDRip 1080p
Формат: MKV
Видео кодек: AVC
Аудио кодек: AC3
Видео: MPEG4/AVC, 11.8 Mbps, 1 920x1 080, 16:9, 24.000 fps, (Bits/Pixel): 0.237
Аудио#1: Russian: AC-3, 640 Kbps, 6 ch, 48.0 KHz
Аудио#2: English: AC-3, 448 Kbps, 6 ch, 48.0 KHz
Аудио#3: German: AC-3б 448 Kbps, 6 ch, 48.0 KHz
General
Unique ID : 192357869041170746645065185315429884643 (0x90B6C72B2BD6B24B8EC7C79DC1F922E3)
Complete name : /etc/seedbox/home/kep/data/IMAX.Serfing.Na.Taiti.3D.2010.x264.BDRip.1080p.Kinozal.TV-HD.mkv
Format : Matroska
Format version : Version 2
File size : 4.22 GiB
Duration : 45mn 53s
Overall bit rate : 13.2 Mbps
Movie name : Rip 17Saint
Encoded date : UTC 2013-01-07 13:03:27
Writing application : mkvmerge v5.0.0 ('Die Wahre Liebe') built on Sep 25 2011 20:33:49
Writing library : libebml v1.2.2 + libmatroska v1.3.0

Video
ID : 1
Format : AVC
Format/Info : Advanced Video Codec
Format profile : High@L4.1
Format settings, CABAC : Yes
Format settings, ReFrames : 3 frames
Codec ID : V_MPEG4/ISO/AVC
Duration : 45mn 53s
Bit rate : 11.8 Mbps
Width : 1 920 pixels
Height : 1 080 pixels
Display aspect ratio : 16:9
Frame rate mode : Constant
Frame rate : 24.000 fps
Color space : YUV
Chroma subsampling : 4:2:0
Bit depth : 8 bits
Scan type : Progressive
Bits/(Pixel*Frame) : 0.237
Stream size : 3.65 GiB (86%)
Title : Rip 17Saint
Writing library : x264 core 113
Encoding settings : cabac=1 / ref=4 / deblock=1:-2:-2 / analyse=0x3:0x133 / me=hex / subme=7 / psy=1 / psy_rd=1.00:0.00 / mixed_ref=1 / me_range=16 / chroma_me=1 / trellis=1 / 8x8dct=1 / cqm=0 / deadzone=21,11 / fast_pskip=1 / chroma_qp_offset=-2 / threads=8 / sliced_threads=0 / nr=0 / decimate=1 / interlaced=0 / constrained_intra=0 / bframes=4 / b_pyramid=1 / b_adapt=2 / b_bias=0 / direct=3 / weightb=1 / open_gop=0 / weightp=2 / keyint=240 / keyint_min=24 / scenecut=40 / intra_refresh=0 / rc_lookahead=40 / rc=abr / mbtree=1 / bitrate=11800 / ratetol=1.0 / qcomp=0.60 / qpmin=10 / qpmax=51 / qpstep=4 / ip_ratio=1.40 / aq=1:1.00
Language : English
Default : Yes
Forced : No

Audio #1
ID : 2
Format : AC-3
Format/Info : Audio Coding 3
Mode extension : CM (complete main)
Format settings, Endianness : Big
Codec ID : A_AC3
Duration : 45mn 53s
Bit rate mode : Constant
Bit rate : 640 Kbps
Channel count : 6 channels
Channel positions : Front: L C R, Side: L R, LFE
Sampling rate : 48.0 KHz
Bit depth : 16 bits
Compression mode : Lossy
Stream size : 210 MiB (5%)
Title : Русский (AC3, 6 ch, 640 Кбит/с)
Language : Russian
Default : Yes
Forced : No

Audio #2
ID : 3
Format : AC-3
Format/Info : Audio Coding 3
Mode extension : CM (complete main)
Format settings, Endianness : Big
Codec ID : A_AC3
Duration : 45mn 53s
Bit rate mode : Constant
Bit rate : 448 Kbps
Channel count : 6 channels
Channel positions : Front: L C R, Side: L R, LFE
Sampling rate : 48.0 KHz
Bit depth : 16 bits
Compression mode : Lossy
Stream size : 147 MiB (3%)
Title : English DD 5.1 @ 448 кбит/с
Language : English
Default : No
Forced : No

Audio #3
ID : 4
Format : AC-3
Format/Info : Audio Coding 3
Mode extension : CM (complete main)
Format settings, Endianness : Big
Codec ID : A_AC3
Duration : 45mn 53s
Bit rate mode : Constant
Bit rate : 448 Kbps
Channel count : 6 channels
Channel positions : Front: L C R, Side: L R, LFE
Sampling rate : 48.0 KHz
Bit depth : 16 bits
Compression mode : Lossy
Stream size : 147 MiB (3%)
Title : German DD 5.1 @ 448 кбит/с
Language : German
Default : No
Forced : No
piratbit.org



Скачать Серфинг на Таити 3D через торрент http://i4.imageban.ru/out/2014/01/29/8a1bcd80c06ab80fac7a76f2e4fee62d.png Скачать фильм Серфинг на Таити 3D через торрент бесплантно в хорошем качестве Описание: Действие разворачивается на острове Таити, в местечке Teahupoo,знаменитом своими убийственно быстрыми и тяжелыми волнами. Туда ... 10 10 7
Info! Золотая раздача, скачанное не засчитывается.
Торрент: Зарегистрирован [2014-01-29 12:39] · скачан: 81 раз
Статус: √ проверено
Размер: 4.22 GB
Как cкачать? Как скачать Серфинг на Таити 3D через торрент | qTorrent


>> Регистрируемся здесь <<






Отзывы и комментарии о схеме читаем и пишем здесь: ---> Отзывы и комментарии о схеме

Новые благодарочки в телеграм довольных пользователей:
скриншот   скриншот   скриншот   скриншот   скриншот
    Дорогой пользователь! Огромная просьба, поблагодарите релизера, оцените раздачу и оставьте свои комментарий, если Вы скачали Серфинг на Таити 3D через торрент бесплатно! Внесите свою лепту в развитие PiratBit!
    Комментировать посты могут только пользователи прошедшие не сложную регистрацию
    Показать сообщения:    

    Серфинг на Таити 3D через торрент
    Скачать бесплатно Серфинг на Таити 3D
    Серфинг на Таити 3D скачать торрент
    Серфинг на Таити 3D смотреть онлайн
    Cкачать фильм Серфинг на Таити 3D бесплатно
    Серфинг на Таити 3D скачать торрент в хорошем качестве
    Серфинг на Таити 3D смотреть онлайн бесплатно в хорошем качестве


    Вы не можете начинать темы
    Вы не можете отвечать на сообщения
    Вы не можете редактировать свои сообщения
    Вы не можете удалять свои сообщения
    Вы не можете голосовать в опросах
    Вы не можете прикреплять файлы к сообщениям
    Вы можете скачивать файлы