Архив 81

1 сезон

Добыча

Дубляж

Тед Лассо

3 сезон

Тор

1 сезон

13 клиническая

3 сезон

Жестокая ночь

Дубляж

Одни из нас

Лицензия

The Last of Us игра на PC

Extended

Deluxe

Deluxe

pack

Рекомендуем

30

Repack

ВАЖНО

ВАЖНО

Ghostwire

Пиратка

jed

RePack

nioh2

RePack

RDR2

RePack

NEED FOR SPEED™ PAYBACK

RePack

скачать торрент

Кинопоиск HD

Острые козырьки 6 сезон

6 сезон

FAR CRY 6

RePack

скачать торрент

Лицензия

скачать торрент

MVO

1

1 сезон

скачать торрент

1 сезон

скачать торрент

Лицензия

  

Призрачный патруль в 3D / R.I.P.D in 3D (Роберт Швентке / Robert Schwentke) [2013 г., Фэнтези, Боевик, Комедия, BDRip 1080p, Дубляж + Оригинал] (Crop) [iTunes Russia] Анаглиф (Дюбуа)

Призрачный патруль в 3D через торрент piratbit.org

Размер: 6.62 GB | Добавлен: 9 лет 2 мес. назад | Торрент скачан:65 раз
Смотреть онлайн | Скачать | Поддержите нас   

24-10-2013 08:21 Призрачный патруль в 3D Скачать торрент  

Призрачный патруль в 3D / R.I.P.D in 3D
Год выпуска: 2013
Страна: США (Universal Pictures, Original Film, Dark Horse Entertainment)
Жанр: Фэнтези, Боевик, Комедия,
Продолжительность: 01:35:58
Перевод: Кинотеатральный дубляж (iTunes) + Оригинал
Субтитры: Русские

Режиссер: Роберт Швентке / Robert Schwentke
Продюссер: Майкл Фоттрел, Нил Х. Мориц, Майк Ричардсон
Сценарий: Фил Хэй, Мэтт Манфреди, Питер М. Ленков

Бюджет: $130 000 000
Премьера в мире: 17 июля 2013



В ролях: Джефф Бриджес, Райан Рейнольдс, Кевин Бейкон, Мэри-Луиз Паркер, Стефани Зостак, Джеймс Хонг, Мариса Миллер, Роберт Неппер, Майк О’Мэлли, Девин Рэтрей,

Описание: Детективы из загробного департамента расследуют преступления по ту сторону могилы и гоняются за не в меру ретивой нечистью. Молодой коп, после гибели от руки неизвестного злоумышленника угодивший в мир иной, в обмен на помощь при расследовании собственного убийства обязуется следующие сто лет посвятить службе в R.I.P.D. и, получив в напарники брутального стрелка эпохи вестернов, выходит на борьбу с неупокоившимся злом.

Доп. информация: Формат 3D: Анаглиф (Дюбуа)



Внимание: (CROP) Справа и слева видеоряд обрезан, что дает возможность просмотра на полный экран (без черных полос) на телевизорах с соотношением сторон 16:9 без изменения пропорций.

Качество: BDRip 1080p
Формат: MKV
Видео кодек: H.264
Аудио кодек: AC3
Видео: х264, 1920 x 1080 (16:9), 23.976 fps, 9124 Кbps, 0.184 bit/pixel
Аудио#1: Русский / AC3 / 48 KHz / 5.1 ch / 384 Kbps (Дубляж - iTunes)
Аудио#2: Английский / AC3 / 48 KHz / 5.1 ch / 384 Kbps (Original)




Общее
Уникальный идентификатор : 32225615228089481547190003667699083972 (0x183E6D80008D3BE7489CD25F8D85AAC4)
Полное имя : E:R.I.P.D 3D.2013.1080p.(Crop).(Anaglyph_Dubois).mkv
Формат : Matroska
Версия формата : Version 2
Размер файла : 6,62 Гбайт
Продолжительность : 1 ч. 35 м.
Общий поток : 9871 Кбит/сек
Программа кодирования : HandBrake 0.9.9
Библиотека кодирования : libmkv 0.6.5
TITLE : Призрачный патруль / R.I.P.D 3D.2013.1080p.BluRay.(Anaglyph_Dubois)

Видео
Идентификатор : 1
Формат : AVC
Формат/Информация : Advanced Video Codec
Профиль формата : [email protected]
Параметр CABAC формата : Нет
Параметр ReFrames формата : 4 кадра
Идентификатор кодека : V_MPEG4/ISO/AVC
Продолжительность : 1 ч. 35 м.
Битрейт : 9124 Кбит/сек
Ширина : 1920 пикселей
Высота : 1080 пикселей
Соотношение сторон : 16:9
Частота кадров : 23,976 кадра/сек
Цветовое пространство : YUV
Субдискретизация насыщенности : 4:2:0
Битовая глубина : 8 бит
Тип развёртки : Прогрессивная
Бит/(Пиксели*Кадры) : 0.184
Размер потока : 5,97 Гбайт (90%)
Библиотека кодирования : x264 core 130 r2273 b3065e6
Настройки программы : cabac=0 / ref=4 / deblock=0:0:0 / analyse=0:0 / me=dia / subme=0 / psy=1 / psy_rd=1.00:0.00 / mixed_ref=0 / me_range=16 / chroma_me=1 / trellis=0 / 8x8dct=0 / cqm=0 / deadzone=21,11 / fast_pskip=1 / chroma_qp_offset=0 / threads=1 / lookahead_threads=1 / sliced_threads=0 / nr=0 / decimate=1 / interlaced=0 / bluray_compat=0 / constrained_intra=0 / bframes=4 / b_pyramid=2 / b_adapt=0 / b_bias=0 / direct=1 / weightb=0 / open_gop=0 / weightp=0 / keyint=240 / keyint_min=24 / scenecut=0 / intra_refresh=0 / rc=abr / mbtree=0 / bitrate=9124 / ratetol=1.0 / qcomp=0.60 / qpmin=0 / qpmax=69 / qpstep=4 / ip_ratio=1.40 / pb_ratio=1.30 / aq=0
Язык : English
Основные цвета : BT.709-5, BT.1361, IEC 61966-2-4, SMPTE RP177
Характеристики трансфера : BT.709-5, BT.1361
Коэффициенты матрицы : BT.709-5, BT.1361, IEC 61966-2-4 709, SMPTE RP177

Аудио #1
Идентификатор : 2
Формат : AC-3
Формат/Информация : Audio Coding 3
Расширение режима : CM (complete main)
Идентификатор кодека : A_AC3
Продолжительность : 1 ч. 35 м.
Вид битрейта : Постоянный
Битрейт : 384 Кбит/сек
Каналы : 6 каналов
Расположение каналов : Front: L C R, Side: L R, LFE
Частота : 48,0 КГц
Битовая глубина : 16 бит
Метод сжатия : С потерями
Размер потока : 264 Мбайт (4%)
Язык : Russian

Аудио #2
Идентификатор : 3
Формат : AC-3
Формат/Информация : Audio Coding 3
Расширение режима : CM (complete main)
Идентификатор кодека : A_AC3
Продолжительность : 1 ч. 35 м.
Вид битрейта : Постоянный
Битрейт : 384 Кбит/сек
Каналы : 6 каналов
Расположение каналов : Front: L C R, Side: L R, LFE
Частота : 48,0 КГц
Битовая глубина : 16 бит
Метод сжатия : С потерями
Размер потока : 264 Мбайт (4%)
Язык : English

Текст
Идентификатор : 4
Формат : UTF-8
Идентификатор кодека : S_TEXT/UTF8
Идентификатор кодека/Информация : UTF-8 Plain Text
Язык : Russian

Меню
00:00:00.000 : Chapter 1
00:03:56.194 : Chapter 2
00:09:12.260 : Chapter 3
00:14:29.618 : Chapter 4
00:17:57.534 : Chapter 5
00:22:29.639 : Chapter 6
00:27:08.543 : Chapter 7
00:33:32.552 : Chapter 8
00:38:45.239 : Chapter 9
00:43:26.770 : Chapter 10
00:46:30.829 : Chapter 11
00:52:03.120 : Chapter 12
00:55:51.139 : Chapter 13
01:02:15.064 : Chapter 14
01:07:00.224 : Chapter 15
01:10:34.813 : Chapter 16
01:13:15.349 : Chapter 17
01:17:51.208 : Chapter 18
01:23:00.016 : Chapter 19
01:27:26.991 : Chapter 20




Скачать Призрачный патруль в 3D через торрент https://pic1.kartinco.top/images/41/ezsvk.jpg Скачать, смотреть онлайн Призрачный патруль в 3D бесплантно в хорошем качестве Описание: Детективы из загробного департамента расследуют преступления по ту сторону могилы и гоняются за не в меру ретивой нечистью. ... 10 10 13
Info! Золотая раздача, скачанное не засчитывается.
Торрент: Зарегистрирован [2014-01-29 20:57] · скачан: 65 раз
Статус: √ проверено
Размер: 6.62 GB
Как cкачать? Как скачать Призрачный патруль в 3D через торрент | UTorrent

% Раздел Тема Автор DL S | L
3D Фильмы [ 10.03 GB ] Призрачный патруль в 3Д / R.I.P.D 3D | | 1080p serega768 Скачать
1 | 0

28-11-2019 20:33  


Отключить вcю реклaмy на сайте, в т.ч. и в плеере онлайн просмотра!

24-10-2013 09:27 Призрачный патруль в 3D Скачать торрент  

Спасибон! Посмотрю в "3D"



    Дорогой пользователь! Огромная просьба, поблагодарите релизера, оцените раздачу и оставьте свои комментарий, если Вы скачали Призрачный патруль в 3D через торрент бесплатно!!
    Комментировать посты могут только пользователи прошедшие не сложную регистрацию
    Показать сообщения:    


    Призрачный патруль в 3D через торрент
    Скачать бесплатно Призрачный патруль в 3D
    Призрачный патруль в 3D скачать торрент
    Призрачный патруль в 3D смотреть онлайн
    Cкачать фильм Призрачный патруль в 3D бесплатно
    Призрачный патруль в 3D скачать торрент в хорошем качестве
    Призрачный патруль в 3D смотреть онлайн бесплатно в хорошем качестве
    Вы не можете начинать темы
    Вы не можете отвечать на сообщения
    Вы не можете редактировать свои сообщения
    Вы не можете удалять свои сообщения
    Вы не можете голосовать в опросах
    Вы не можете прикреплять файлы к сообщениям
    Вы можете скачивать файлы
    Призрачный патруль в 3D / R.I.P.D in 3D [2013 г., Фэнтези, Боевик, Комедия, BDRip 1080p, Дубляж + Оригинал] [iTunes Russia] Анаглиф смотреть онлайн, скачать торрент picoco.icu