Достать ножи: Стеклянная луковица

MVO

Добыча

Дубляж

Уэнсдэй

1 сезон

Тор

Дубляж

13 клиническая

1 сезон

Жестокая ночь

MVO

Одни из нас

1 сезон

Deluxe

pack

Рекомендуем

30

Пиратка

ВАЖНО

ВАЖНО

Ghostwire

Пиратка

jed

RePack

nioh2

RePack

RDR2

RePack

NEED FOR SPEED™ PAYBACK

RePack

скачать торрент

Кинопоиск HD

Острые козырьки 6 сезон

6 сезон

FAR CRY 6

RePack

скачать торрент

Лицензия

скачать торрент

MVO

1

1 сезон

скачать торрент

1 сезон

скачать торрент

Лицензия

  

Кадры / The Internship (Шон Леви) [2013 г., Комедия, BD-Remux, Дубляж + Оригинал]

Кадры через торрент piratbit.org

Размер: 25.71 GB | Добавлен: 9 лет 3 мес. назад | Торрент скачан:95 раз
Смотреть онлайн | Скачать | Поддержите нас   

11-10-2013 12:01 Кадры Скачать торрент  

Кадры / The Internship
Год выпуска: 2013
Страна: США
Жанр: Комедия,
Продолжительность: 02:05:01
Перевод: Дубляж + Оригинал+оригинал+оригинал+ураинский
Субтитры: русские , английские

Режиссер: Шон Леви

В ролях: Роуз Бирн, Джон Гудмен, Винс Вон, Оуэн Уилсон, Чути Тью, Джоэнна Гарсиа, Джош Гад, Джессика Зор, Дилан О’Брайэн, Б.Дж. Новак, Макс Мингелла,

Описание: Недавно уволенные друзья, которым уже за сорок, решают устроиться в качестве стажеров в успешную интернет-компанию, руководители которой вдвое моложе.

Качество: BD-Remux (1080р)
Формат: MKV
Видео кодек: H.264
Аудио кодек: AC3DTS
Видео: (1920x1080),9042 Кбит/с, 23.976 кадра/сек
Аудио#1: DTS, 6 ch, 755 kbps (Rus) 48.0 KHz Дубляж
Аудио#2: DTS- 6 ch 755 kbps (UKR) 48.0 KHz Украинский
Аудио#3: DTS, 6 ch, 1 561 kbps (Eng) 48.0 KHz Оригинал
Аудио#4: AC-3,6 ch, 448 kbps (Eng) 48.0 KHz Оригинал
Аудио#5::AC-3,2 ch, 224 kbps (Eng) 48.0 KHz Оригинал
скриншот   скриншот   скриншот  

Тип потока: Видео
Длительность: 02:05:01
Кодек: AVC
Кодек/Профиль: High@L4.1
Кодек/ID: V_MPEG4/ISO/AVC
Кодек/CABAC: Yes
Кодек/ReFrames: 2 frames
Размеры изображения: 1920 x 1080 (16:9)
Частота кадров: 23.976 fps
Размер потока: 21.9 GiB (85%)
Битрейт: 25.1 Mbps
Битрейт/тип: VBR
Цветовое пространство: YUV
Тип развёртки: Progressive
Глубина: 8 bits
:
Тип потока: Звук #1
Язык: Russian
Длительность: 02:05:01.451
Кодек: DTS
Кодек/ID: A_DTS
Частота дискретизации: 48.0 KHz
Каналов: 6 channels
Битрейт: 755 Kbps
Битрейт/тип: Constant
Размер потока: 675 MiB (3%)
Глубина: 24 bits
Метод сжатия: Lossy
:
Тип потока: Звук #2
Язык: Ukrainian
Длительность: 02:05:01.451
Кодек: DTS
Кодек/ID: A_DTS
Частота дискретизации: 48.0 KHz
Каналов: 6 channels
Битрейт: 755 Kbps
Битрейт/тип: Constant
Размер потока: 675 MiB (3%)
Глубина: 24 bits
Метод сжатия: Lossy
:
Тип потока: Звук #3
Язык: English
Длительность: 02:05:01.451
Кодек: DTS
Кодек/Профиль: MA / Core
Кодек/ID: A_DTS
Частота дискретизации: 48.0 KHz
Каналов: 6 channels
Битрейт: 1 561 Kbps / 1 510 Kbps
Битрейт/тип: Variable
Глубина: 24 bits
Метод сжатия: Lossless / Lossy
:
Тип потока: Звук #4
Язык: English
Длительность: 02:05:01.451
Кодек: AC-3
Кодек/ID: A_AC3
Частота дискретизации: 48.0 KHz
Каналов: 6 channels
Битрейт: 448 Kbps
Битрейт/тип: Constant
Размер потока: 401 MiB (2%)
Глубина: 16 bits
Метод сжатия: Lossy
:
Тип потока: Звук #5
Язык: English
Длительность: 02:05:01.451
Кодек: AC-3
Кодек/ID: A_AC3
Частота дискретизации: 48.0 KHz
Каналов: 2 channels
Битрейт: 224 Kbps
Битрейт/тип: Constant
Размер потока: 200 MiB (1%)
Глубина: 16 bits
Метод сжатия: Lossy
:
Тип потока: Субтитры #1
Язык: Russian
Формат: UTF-8
Формат/подробно: UTF-8 Plain Text
:
Тип потока: Субтитры #2
Язык: English
Формат: PGS
Формат/подробно: The same subtitle format used on BDs/HD-DVDs
:
Тип потока: Субтитры #3
Язык: English
Формат: PGS
Формат/подробно: The same subtitle format used on BDs/HD-DVDs




Скачать Кадры через торрент https://pic1.kartinco.top/images/41/reid1.jpg Скачать, смотреть онлайн Кадры бесплантно в хорошем качестве Описание: Недавно уволенные друзья, которым уже за сорок, решают устроиться в качестве стажеров в успешную интернет-компанию, руководители ... 10 10 10
Info! Золотая раздача, скачанное не засчитывается.
Торрент: Зарегистрирован [2013-10-11 12:01] · скачан: 95 раз
Статус: √ проверено
Размер: 25.71 GB
Как cкачать? Как скачать Кадры через торрент | UTorrent

% Раздел Тема Автор DL S | L
Фильмы 2013 [DVDrip, WEB-DLRip, HDrip] [ 1.46 GB ] Кадры / The Internship | Лицензия | BDRip-AVC, Дубляж, Лицензия potroks Скачать
1 | 0
Фильмы 2013 [DVDrip, WEB-DLRip, HDrip] [ 1.37 GB ] Кадры / The Internship [UNRATED | Лицензия | HDRip, Дубляж, Лицензия MihailHD Скачать
1 | 0
Фильмы (DVD фильмы) [ 7.69 GB ] Кадры / The Internship | | 2013, комедия, DVD9 voovaz Скачать
1 | 0
Фильмы 2013 [DVDrip, WEB-DLRip, HDrip] [ 2.19 GB ] Кадры / The Internship | Лицензия | BDRip-AVC, Дубляж, Лицензия potroks Скачать
1 | 0
Фильмы 2013 [DVDrip, WEB-DLRip, HDrip] [ 2.05 GB ] Кадры / The Internship | Дубляж | HDRip, Дубляж, Лизензия francuz Скачать
1 | 0
Фильмы 2013 [DVDrip, WEB-DLRip, HDrip] [ 746 MB ] Кадры / The Internship | Лицензия) + Sub | BDRip-AVC sokol_ok Скачать
2 | 0
Фильмы 2013 [DVDrip, WEB-DLRip, HDrip] [ 1.45 GB ] Кадры / The Internship | Лицензия) + Sub | BDRip-AVC sokol_ok Скачать
2 | 0

28-11-2019 20:33  


Отключить вcю реклaмy на сайте, в т.ч. и в плеере онлайн просмотра!

    Дорогой пользователь! Огромная просьба, поблагодарите релизера, оцените раздачу и оставьте свои комментарий, если Вы скачали Кадры через торрент бесплатно!!
    Комментировать посты могут только пользователи прошедшие не сложную регистрацию
    Показать сообщения:    


    Кадры через торрент
    Скачать бесплатно Кадры
    Кадры скачать торрент
    Кадры смотреть онлайн
    Cкачать фильм Кадры бесплатно
    Кадры скачать торрент в хорошем качестве
    Кадры смотреть онлайн бесплатно в хорошем качестве
    Вы не можете начинать темы
    Вы не можете отвечать на сообщения
    Вы не можете редактировать свои сообщения
    Вы не можете удалять свои сообщения
    Вы не можете голосовать в опросах
    Вы не можете прикреплять файлы к сообщениям
    Вы можете скачивать файлы
    Кадры / The Internship [2013 г., Комедия, BD-Remux, Дубляж + Оригинал] смотреть онлайн, скачать торрент picoco.icu