Достать ножи: Стеклянная луковица

MVO

Добыча

Дубляж

Уэнсдэй

1 сезон

Тор

Дубляж

13 клиническая

1 сезон

Жестокая ночь

MVO

Одни из нас

1 сезон

Deluxe

pack

Рекомендуем

30

Пиратка

ВАЖНО

ВАЖНО

Ghostwire

Пиратка

jed

RePack

nioh2

RePack

RDR2

RePack

NEED FOR SPEED™ PAYBACK

RePack

скачать торрент

Кинопоиск HD

Острые козырьки 6 сезон

6 сезон

FAR CRY 6

RePack

скачать торрент

Лицензия

скачать торрент

MVO

1

1 сезон

скачать торрент

1 сезон

скачать торрент

Лицензия

  

Тихоокеанский рубеж / Pacific Rim (Гильермо дель Торо) [2013 г., Фантастика, фэнтези, боевик, приключения, BD-Remux, Дубляж, [Цифровая лицензия/iTunes]]

Тихоокеанский рубеж через торрент piratbit.org

Размер: 27.47 GB | Добавлен: 9 лет 3 мес. назад | Торрент скачан:457 раз
Смотреть онлайн | Скачать | Поддержите нас   

28-10-2013 05:25 Тихоокеанский рубеж Скачать торрент  

Тихоокеанский рубеж / Pacific Rim
Год выпуска: 2013
Страна: США / Warner Bros., Legendary Pictures
Жанр: Фантастика, фэнтези, боевик, приключения,
Продолжительность: 02:11:16
Перевод: Дубляж, [Цифровая лицензия/iTunes]

Режиссер: Гильермо дель Торо
Продюссер: Гильермо дель Торо, Джон Дж. Джашни, Мэри Пэрент
Сценарий: Трэвис Бичем, Гильермо дель Торо

Бюджет: $190 000 000
Премьера в мире: 2 июля 2013

IMDB 7.30 (150 490)


В ролях: Чарли Ханнэм, Идрис Эльба, Рон Перлман, Чарли Дэй, Клифтон Коллинз мл., Берн Горман, Роберт Мэйллет, Роберт Казински, Ринко Кикути, Хезер Дорксен и др.,

Описание: Когда из морских глубин поднялись легионы чудовищ, известных как Кайдзу, началась война, которой суждено было забрать миллионы жизней и свести «человеческие ресурсы» почти к нулю всего за несколько лет. Чтобы сражаться с пришельцами, было создано специальное оружие: огромные роботы, названные Джегерами, они управлялись одновременно двумя пилотами, чьи сознания соединены с помощью нейронной связи. Но даже Джегеры оказываются почти бессильны перед лицом безжалостных Кайдзу. На грани поражения у защитников человечества нет выбора, кроме как обратиться к двум весьма сомнительным героям — никому не нужному бывшему пилоту и неопытному стажеру — которые объединились, чтобы повести в бой некогда легендарного, но сейчас устаревшего Джегера. Вместе они оказываются единственной надеждой человечества, последним препятствием перед надвигающимся апокалипсисом.

Качество: BD-Remux
Формат: MKV
Видео кодек: H.264 (AVC)
Аудио кодек: AC3 / DTS
Видео: MPEG-4 AVC, 23.9 Мбит/с, 1920x1080, 23.976 кадр/с
Аудио#1: Русский (АС3, 6 ch, 384 Кбит/с, 48.0 КГц)
Аудио#2: английский (DTS-HD MA, 8 ch, 5461 Кбит/с, 48.0 КГц)
D:DownloadsRubezh.2013.D.BD-Remux.1080p.mkv
General
Unique ID : 230604733885236201229251244651228475494 (0xAD7CDB31EF719E55823AA20E1844B066)
Complete name : D:DownloadsRubezh.2013.D.BD-Remux.1080p.mkv
Format : Matroska
Format version : Version 2
File size : 27.5 GiB
Duration : 2h 11mn
Overall bit rate mode : Variable
Overall bit rate : 30.0 Mbps
Encoded date : UTC 2013-10-27 19:46:32
Writing application : mkvmerge v6.3.0 ('You can't stop me!') built on Jun 28 2013 20:09:41
Writing library : libebml v1.3.0 + libmatroska v1.4.0
Video #1
ID : 1
Format : AVC
Format/Info : Advanced Video Codec
Format profile : High@L4.1
Format settings, CABAC : Yes
Format settings, ReFrames : 2 frames
Format settings, GOP : M=1, N=10
Codec ID : V_MPEG4/ISO/AVC
Duration : 2h 11mn
Bit rate mode : Variable
Bit rate : 27.2 Mbps
Width : 1 920 pixels
Height : 1 080 pixels
Display aspect ratio : 16:9
Frame rate : 23.976 fps
Color space : YUV
Chroma subsampling : 4:2:0
Bit depth : 8 bits
Scan type : Progressive
Bits/(Pixel*Frame) : 0.547
Stream size : 24.9 GiB (91%)
Default : Yes
Forced : No
Audio #2
ID : 2
Format : AC-3
Format/Info : Audio Coding 3
Mode extension : CM (complete main)
Codec ID : A_AC3
Duration : 2h 11mn
Bit rate mode : Constant
Bit rate : 384 Kbps
Channel(s) : 6 channels
Channel positions : Front: L C R, Side: L R, LFE
Sampling rate : 48.0 KHz
Bit depth : 16 bits
Compression mode : Lossy
Stream size : 361 MiB (1%)
Language : Russian
Default : Yes
Forced : No
Audio #3
ID : 3
Format : DTS
Format/Info : Digital Theater Systems
Format profile : MA / Core
Codec ID : A_DTS
Duration : 2h 11mn
Bit rate mode : Variable
Bit rate : 1 597 Kbps / 1 510 Kbps
Channel(s) : 8 channels / 6 channels
Channel positions : Front: L C R, Side: L R, Back: L R, LFE / Front: L C R, Side: L R, LFE
Sampling rate : 48.0 KHz
Bit depth : 24 bits
Compression mode : Lossless / Lossy
Language : English
Default : No
Forced : No
Audio #4
ID : 4
Format : AC-3
Format/Info : Audio Coding 3
Format profile : Dolby Digital
Mode extension : CM (complete main)
Codec ID : A_AC3
Duration : 2h 11mn
Bit rate mode : Constant
Bit rate : 192 Kbps
Channel(s) : 2 channels
Channel positions : Front: L R
Sampling rate : 48.0 KHz
Bit depth : 16 bits
Compression mode : Lossy
Stream size : 180 MiB (1%)
Language : English
Default : No
Forced : No
Text #5
ID : 5
Format : UTF-8
Codec ID : S_TEXT/UTF8
Codec ID/Info : UTF-8 Plain Text
Language : Russian
Default : No
Forced : No
Text #6
ID : 6
Format : PGS
Muxing mode : zlib
Codec ID : S_HDMV/PGS
Codec ID/Info : The same subtitle format used on BDs/HD-DVDs
Language : English
Default : Yes
Forced : Nos



Тихоокеанский рубеж скачать торрент





Скачать Тихоокеанский рубеж через торрент https://pic1.kartinco.top/images/41/y8az7.jpg Скачать, смотреть онлайн Тихоокеанский рубеж бесплантно в хорошем качестве Описание: Когда из морских глубин поднялись легионы чудовищ, известных как Кайдзу, началась война, которой суждено было забрать миллионы ... 9.9 10 19
Info! Золотая раздача, скачанное не засчитывается.
Торрент: Зарегистрирован [2013-10-28 05:25] · скачан: 457 раз
Статус: √ проверено
Размер: 27.47 GB
Как cкачать? Как скачать Тихоокеанский рубеж через торрент | UTorrent

% Раздел Тема Автор DL S | L
Фильмы (HD 720p, 1080p) (48-60 fps) [ 6.54 GB ] Тихоокеанский рубеж / Pacific Rim | Дубляж | 720p / 60 FPS slaventi-69 Скачать
1 | 0
Фильмы [HD 720p, 1080p] (Хороший звук DUB, MVO) [ 16.92 GB ] Тихоокеанский рубеж / Pacific Rim | Лицензия | 1080p, DUB лисяра Скачать
1 | 0
Сборники (HD Video) [ 15.54 GB ] Тихоокеанский рубеж: Дилогия / Pacific Rim: Dilogy | Лицензия | 1080p, (10 bit bober100 Скачать
2 | 0
Ultra HD (UHD: 2K, 4K, 8K) [ 22.74 GB ] Тихоокеанский рубеж / Pacific Rim | Лицензия BD EUR | 2160p (10 бит Леонид Ильич Скачать
1 | 0
Ultra HD (UHD: 2K, 4K, 8K) [ 52.88 GB ] Тихоокеанский рубеж / Pacific Rim | DUB | 2160p sheker187 Скачать
1 | 0
3D Фильмы [ 27.92 GB ] Тихоокеанский рубеж в 3Д / Pacific Rim 3D | Лицензия | 1080p serega768 Скачать
1 | 0
Ultra HD (UHD: 2K, 4K, 8K) [ 79.02 GB ] Тихоокеанский рубеж / Pacific Rim | DUB | 2160p bober100 Скачать
1 | 0



Последний раз редактировалось: MihailHD (2013-10-28 06:01), всего редактировалось 1 раз

28-11-2019 20:33  


Отключить вcю реклaмy на сайте, в т.ч. и в плеере онлайн просмотра!

28-10-2013 09:41 Тихоокеанский рубеж Скачать торрент  

спасибо за качество!)



28-10-2013 11:30 Тихоокеанский рубеж Скачать торрент  

Спасибо. Фильм качественный.



28-10-2013 15:12 Тихоокеанский рубеж Скачать торрент  

Супер. спасибо!!!!



28-10-2013 16:34 Тихоокеанский рубеж Скачать торрент  

Крутятский крутяк, спасибо! Давно ждал - забираю!



29-10-2013 10:21 Тихоокеанский рубеж Скачать торрент  

Скажите кто-нибудь чем Itunes дубляж отличается от лицензионного? Слышно оригинальную дорожку или что?



29-10-2013 10:52 Тихоокеанский рубеж Скачать торрент  

Спасибо за качество!!!Фильм очень даже ни чего,можно посмотреть отдохнуть!!!Ожидал,что будет менее интересным!



29-10-2013 12:31 Тихоокеанский рубеж Скачать торрент  

Хороший фильм



04-08-2015 16:47 Тихоокеанский рубеж Скачать торрент  

Встаньте на раздачу, пожалуйста!!!



    Дорогой пользователь! Огромная просьба, поблагодарите релизера, оцените раздачу и оставьте свои комментарий, если Вы скачали Тихоокеанский рубеж через торрент бесплатно!!
    Комментировать посты могут только пользователи прошедшие не сложную регистрацию
    Показать сообщения:    


    Тихоокеанский рубеж через торрент
    Скачать бесплатно Тихоокеанский рубеж
    Тихоокеанский рубеж скачать торрент
    Тихоокеанский рубеж смотреть онлайн
    Cкачать фильм Тихоокеанский рубеж бесплатно
    Тихоокеанский рубеж скачать торрент в хорошем качестве
    Тихоокеанский рубеж смотреть онлайн бесплатно в хорошем качестве
    Вы не можете начинать темы
    Вы не можете отвечать на сообщения
    Вы не можете редактировать свои сообщения
    Вы не можете удалять свои сообщения
    Вы не можете голосовать в опросах
    Вы не можете прикреплять файлы к сообщениям
    Вы можете скачивать файлы
    Тихоокеанский рубеж / Pacific Rim [2013 г., Фантастика, фэнтези, боевик, приключения, BD-Remux, Дубляж, [Цифровая лицензия/iTunes]] смотреть онлайн, скачать торрент picoco.icu