Достать ножи: Стеклянная луковица

MVO

Добыча

Дубляж

Уэнсдэй

1 сезон

Тор

Дубляж

13 клиническая

1 сезон

Жестокая ночь

MVO

Одни из нас

1 сезон

Deluxe

pack

Рекомендуем

30

Пиратка

ВАЖНО

ВАЖНО

Ghostwire

Пиратка

jed

RePack

nioh2

RePack

RDR2

RePack

NEED FOR SPEED™ PAYBACK

RePack

скачать торрент

Кинопоиск HD

Острые козырьки 6 сезон

6 сезон

FAR CRY 6

RePack

скачать торрент

Лицензия

скачать торрент

MVO

1

1 сезон

скачать торрент

1 сезон

скачать торрент

Лицензия

  

Хичкок / Hitchcock (Саша Джерваси) [2012 г., драма, история, биография, Blu-Ray, Дубляж, лицензия]

Хичкок через торрент piratbit.org

Размер: 43.28 GB | Добавлен: 9 лет 10 мес. назад | Торрент скачан:6 раз
Смотреть онлайн | Скачать | Поддержите нас   

31-03-2013 04:51 Хичкок Скачать торрент  

Хичкок / Hitchcock
Год выпуска: 2012
Страна: США
Жанр: драма, история, биография,
Продолжительность: 01:38:20
Перевод: Дубляж, Лицензия
Субтитры: Russian, French, Spanish, German, Italian, Japanese, Danish, Dutch, Finnish, Norwegian, Swedish, Arabic, Estonian, Latvian, Lithuanian, Chinese, Turkish, Ukrainian

Режиссер: Саша Джерваси
Продюссер: Алан Барнетт, Джо Медьяк, Том Поллок
Сценарий: Джон Дж. МакЛафлин, Стивен Ребелло

Мировой рейтинг IMDB 7.00 (20 503)


В ролях: Энтони Хопкинс, Хелен Миррен, Скарлетт Йоханссон, Тони Коллетт, Дэнни Хьюстон, Джессика Бил, Майкл Стулбарг, Майкл Уинкотт, Джеймс Д’Арси, Ричард Портноу, Андрей Ярославцев, Любовь Германова, Татьяна Шитова, Ирина Киреева, Владимир Антоник,

Описание: Известный режиссер отваживается на эксперимент: отойти от ставших его визитной карточкой дорогостоящих фильмов в жанре «саспенс» и снять скромную, к тому же черно-белую картину «Психо». В процессе работы будущий «мастер страха» вглядывается в темные бездны человеческой души, чтобы найти те нервные окончания, прикасаясь к которым он мог бы, как по клавишам, сыграть на эмоциях зрителя настоящую симфонию ужаса.

Доп. информация: Мобильный телефон Хичкок PSA, История, Актерский состав, Маэстро Данни Эльфман, Хич и Альма, Вспоминая Хичкока, Как стать Мастером: от Хопкинса до Хичкока, Одержимость Хичкоком, За кадром: съемки с телефона Саши Джерваси

Качество: Blu-Ray
Формат: BDMV
Видео кодек: H.264
Аудио кодек: DTS, AC3
Видео: 1920 x 1080 (1.778) at 23.976 fps AVC at 34,5 Мбит/сек
Аудио#1: DTS at 1561 Кбит/сек / 1510 Кбит/сек 6 каналов, 48,0 КГц English
Аудио#2: AC-3 at 448 Кбит/сек 6 каналов, 48,0 КГц English
Аудио#3: DTS at 755 Кбит/сек 6 каналов, 48,0 КГц Russian, French, Spanish, German, Italian, Japanese
Аудио#4: AC-3 at 224 Кбит/сек 2 канала, 48,0 КГц English
Общее
Идентификатор : 0 (0x0)
Полное имя : D:ФильмыHitchcock.2012.1080p.EUR.Blu-ray.ac3.DTS-HD.MA.5.1BDMVSTREAM�0800.m2ts
Формат : BDAV
Формат/Информация : Blu-ray Video
Размер файла : 29,6 Гбайт
Продолжительность : 1 ч. 38 м.
Режим общего битрейта : Переменный
Общий поток : 43,1 Мбит/сек
Максимальный общий битрейт : 48,0 Мбит/сек

Видео
Идентификатор : 4113 (0x1011)
Идентификатор меню : 1 (0x1)
Формат : AVC
Формат/Информация : Advanced Video Codec
Профиль формата : High@L4.1
Параметр CABAC формата : Да
Параметр ReFrames формата : 4 кадра
Идентификатор кодека : 27
Продолжительность : 1 ч. 38 м.
Вид битрейта : Переменный
Битрейт : 34,5 Мбит/сек
Максимальный битрейт : 32,0 Мбит/сек
Ширина : 1920 пикселей
Высота : 1080 пикселей
Соотношение сторон : 16:9
Частота кадров : 23,976 кадра/сек
Цветовое пространство : YUV
Субдискретизация насыщенности : 4:2:0
Битовая глубина : 8 бит
Тип развёртки : Прогрессивная
Бит/(Пиксели*Кадры) : 0.694
Размер потока : 23,7 Гбайт (80%)

Аудио #1
Идентификатор : 4352 (0x1100)
Идентификатор меню : 1 (0x1)
Формат : DTS
Формат/Информация : Digital Theater Systems
Профиль формата : MA / Core
Режим смешивания : Stream extension
Идентификатор кодека : 134
Продолжительность : 1 ч. 38 м.
Вид битрейта : Переменный
Битрейт : 1561 Кбит/сек / 1510 Кбит/сек
Каналы : 6 каналов
Расположение каналов : Front: L C R, Side: L R, LFE
Частота : 48,0 КГц
Битовая глубина : 24 бит
Метод сжатия : Без потерь / Lossy

Аудио #2
Идентификатор : 4353 (0x1101)
Идентификатор меню : 1 (0x1)
Формат : AC-3
Формат/Информация : Audio Coding 3
Расширение режима : CM (complete main)
Идентификатор кодека : 129
Продолжительность : 1 ч. 38 м.
Вид битрейта : Постоянный
Битрейт : 448 Кбит/сек
Каналы : 6 каналов
Расположение каналов : Front: L C R, Side: L R, LFE
Частота : 48,0 КГц
Битовая глубина : 16 бит
Метод сжатия : С потерями
Размер потока : 315 Мбайт (1%)

Аудио #3
Идентификатор : 4354 (0x1102)
Идентификатор меню : 1 (0x1)
Формат : DTS
Формат/Информация : Digital Theater Systems
Идентификатор кодека : 130
Продолжительность : 1 ч. 38 м.
Вид битрейта : Постоянный
Битрейт : 755 Кбит/сек
Каналы : 6 каналов
Расположение каналов : Front: L C R, Side: L R, LFE
Частота : 48,0 КГц
Битовая глубина : 24 бит
Метод сжатия : С потерями
Размер потока : 531 Мбайт (2%)

Аудио #4
Идентификатор : 4355 (0x1103)
Идентификатор меню : 1 (0x1)
Формат : DTS
Формат/Информация : Digital Theater Systems
Идентификатор кодека : 130
Продолжительность : 1 ч. 38 м.
Вид битрейта : Постоянный
Битрейт : 755 Кбит/сек
Каналы : 6 каналов
Расположение каналов : Front: L C R, Side: L R, LFE
Частота : 48,0 КГц
Битовая глубина : 24 бит
Метод сжатия : С потерями
Размер потока : 531 Мбайт (2%)

Аудио #5
Идентификатор : 4356 (0x1104)
Идентификатор меню : 1 (0x1)
Формат : DTS
Формат/Информация : Digital Theater Systems
Идентификатор кодека : 130
Продолжительность : 1 ч. 38 м.
Вид битрейта : Постоянный
Битрейт : 755 Кбит/сек
Каналы : 6 каналов
Расположение каналов : Front: L C R, Side: L R, LFE
Частота : 48,0 КГц
Битовая глубина : 24 бит
Метод сжатия : С потерями
Размер потока : 531 Мбайт (2%)

Аудио #6
Идентификатор : 4357 (0x1105)
Идентификатор меню : 1 (0x1)
Формат : DTS
Формат/Информация : Digital Theater Systems
Идентификатор кодека : 130
Продолжительность : 1 ч. 38 м.
Вид битрейта : Постоянный
Битрейт : 755 Кбит/сек
Каналы : 6 каналов
Расположение каналов : Front: L C R, Side: L R, LFE
Частота : 48,0 КГц
Битовая глубина : 24 бит
Метод сжатия : С потерями
Размер потока : 531 Мбайт (2%)

Аудио #7
Идентификатор : 4358 (0x1106)
Идентификатор меню : 1 (0x1)
Формат : DTS
Формат/Информация : Digital Theater Systems
Идентификатор кодека : 130
Продолжительность : 1 ч. 38 м.
Вид битрейта : Постоянный
Битрейт : 755 Кбит/сек
Каналы : 6 каналов
Расположение каналов : Front: L C R, Side: L R, LFE
Частота : 48,0 КГц
Битовая глубина : 24 бит
Метод сжатия : С потерями
Размер потока : 531 Мбайт (2%)

Аудио #8
Идентификатор : 4359 (0x1107)
Идентификатор меню : 1 (0x1)
Формат : DTS
Формат/Информация : Digital Theater Systems
Идентификатор кодека : 130
Продолжительность : 1 ч. 38 м.
Вид битрейта : Постоянный
Битрейт : 755 Кбит/сек
Каналы : 6 каналов
Расположение каналов : Front: L C R, Side: L R, LFE
Частота : 48,0 КГц
Битовая глубина : 24 бит
Метод сжатия : С потерями
Размер потока : 531 Мбайт (2%)

Аудио #9
Идентификатор : 4360 (0x1108)
Идентификатор меню : 1 (0x1)
Формат : AC-3
Формат/Информация : Audio Coding 3
Расширение режима : CM (complete main)
Идентификатор кодека : 129
Продолжительность : 1 ч. 38 м.
Вид битрейта : Постоянный
Битрейт : 224 Кбит/сек
Каналы : 2 канала
Расположение каналов : Front: L R
Частота : 48,0 КГц
Битовая глубина : 16 бит
Метод сжатия : С потерями
Размер потока : 158 Мбайт (1%)

Текст #1
Идентификатор : 4610 (0x1202)
Идентификатор меню : 1 (0x1)
Формат : PGS
Идентификатор кодека : 144

Текст #2
Идентификатор : 4611 (0x1203)
Идентификатор меню : 1 (0x1)
Формат : PGS
Идентификатор кодека : 144

Текст #3
Идентификатор : 4612 (0x1204)
Идентификатор меню : 1 (0x1)
Формат : PGS
Идентификатор кодека : 144

Текст #4
Идентификатор : 4613 (0x1205)
Идентификатор меню : 1 (0x1)
Формат : PGS
Идентификатор кодека : 144

Текст #5
Идентификатор : 4614 (0x1206)
Идентификатор меню : 1 (0x1)
Формат : PGS
Идентификатор кодека : 144

Текст #6
Идентификатор : 4615 (0x1207)
Идентификатор меню : 1 (0x1)
Формат : PGS
Идентификатор кодека : 144

Текст #7
Идентификатор : 4616 (0x1208)
Идентификатор меню : 1 (0x1)
Формат : PGS
Идентификатор кодека : 144

Текст #8
Идентификатор : 4618 (0x120A)
Идентификатор меню : 1 (0x1)
Формат : PGS
Идентификатор кодека : 144

Текст #9
Идентификатор : 4619 (0x120B)
Идентификатор меню : 1 (0x1)
Формат : PGS
Идентификатор кодека : 144

Текст #10
Идентификатор : 4620 (0x120C)
Идентификатор меню : 1 (0x1)
Формат : PGS
Идентификатор кодека : 144

Текст #11
Идентификатор : 4621 (0x120D)
Идентификатор меню : 1 (0x1)
Формат : PGS
Идентификатор кодека : 144

Текст #12
Идентификатор : 4622 (0x120E)
Идентификатор меню : 1 (0x1)
Формат : PGS
Идентификатор кодека : 144

Текст #13
Идентификатор : 4623 (0x120F)
Идентификатор меню : 1 (0x1)
Формат : PGS
Идентификатор кодека : 144

Текст #14
Идентификатор : 4624 (0x1210)
Идентификатор меню : 1 (0x1)
Формат : PGS
Идентификатор кодека : 144

Текст #15
Идентификатор : 4625 (0x1211)
Идентификатор меню : 1 (0x1)
Формат : PGS
Идентификатор кодека : 144

Текст #16
Идентификатор : 4626 (0x1212)
Идентификатор меню : 1 (0x1)
Формат : PGS
Идентификатор кодека : 144

Текст #17
Идентификатор : 4627 (0x1213)
Идентификатор меню : 1 (0x1)
Формат : PGS
Идентификатор кодека : 144

Текст #18
Идентификатор : 4630 (0x1216)
Идентификатор меню : 1 (0x1)
Формат : PGS
Идентификатор кодека : 144

Текст #19
Идентификатор : 4631 (0x1217)
Идентификатор меню : 1 (0x1)
Формат : PGS
Идентификатор кодека : 144

Текст #20
Идентификатор : 4634 (0x121A)
Идентификатор меню : 1 (0x1)
Формат : PGS
Идентификатор кодека : 144

Текст #21
Идентификатор : 4635 (0x121B)
Идентификатор меню : 1 (0x1)
Формат : PGS
Идентификатор кодека : 144

Текст #22
Идентификатор : 4636 (0x121C)
Идентификатор меню : 1 (0x1)
Формат : PGS
Идентификатор кодека : 144

Текст #23
Идентификатор : 4637 (0x121D)
Идентификатор меню : 1 (0x1)
Формат : PGS
Идентификатор кодека : 144

Текст #24
Идентификатор : 4638 (0x121E)
Идентификатор меню : 1 (0x1)
Формат : PGS
Идентификатор кодека : 144

Текст #25
Идентификатор : 4639 (0x121F)
Идентификатор меню : 1 (0x1)
Формат : PGS
Идентификатор кодека : 144


Хичкок скачать торрент





Скачать Хичкок через торрент https://pic1.kartinco.top/images/21/arr5g2sw22.png Скачать, смотреть онлайн Хичкок бесплантно в хорошем качестве Описание: Известный режиссер отваживается на эксперимент: отойти от ставших его визитной карточкой дорогостоящих фильмов в жанре «саспенс» ... 10 10 5
Info! Золотая раздача, скачанное не засчитывается.
Торрент: Зарегистрирован [2013-03-31 04:51] · скачан: 6 раз
Статус: √ проверено
Размер: 43.28 GB
Как cкачать? Как скачать Хичкок через торрент | UTorrent

% Раздел Тема Автор DL S | L
Фильмы 2012 [ 1.45 GB ] Хичкок / Hitchcock | Дубляж | HDRip, Дубляж, лицензия кэп Скачать
1 | 0
Фильмы (DVD фильмы) [ 5.9 GB ] Хичкок / Hitchcock | | Хичкок / Hitchcock (Саша Джерваси / Sacha Gervasi voovaz Скачать
1 | 0
Фильмы [HD 720p, 1080p] (Хороший звук DUB, MVO) [ 7.58 GB ] Хичкок / Hitchcock | Дубляж + Оригинал | 1080p, Дубляж + Оригинал Trava-HD Скачать
1 | 0
Фильмы 2012 [ 2.15 GB ] Хичкок / Hitchcock | | BDRip-AVC Mr. Freeman Скачать
1 | 0
Фильмы [HD 720p, 1080p] (Хороший звук DUB, MVO) [ 4.2 GB ] Хичкок / Hitchcock | | 720p diletant Скачать
1 | 0

28-11-2019 20:33  


Отключить вcю реклaмy на сайте, в т.ч. и в плеере онлайн просмотра!

    Дорогой пользователь! Огромная просьба, поблагодарите релизера, оцените раздачу и оставьте свои комментарий, если Вы скачали Хичкок через торрент бесплатно!!
    Комментировать посты могут только пользователи прошедшие не сложную регистрацию
    Показать сообщения:    


    Хичкок через торрент
    Скачать бесплатно Хичкок
    Хичкок скачать торрент
    Хичкок смотреть онлайн
    Cкачать фильм Хичкок бесплатно
    Хичкок скачать торрент в хорошем качестве
    Хичкок смотреть онлайн бесплатно в хорошем качестве
    Вы не можете начинать темы
    Вы не можете отвечать на сообщения
    Вы не можете редактировать свои сообщения
    Вы не можете удалять свои сообщения
    Вы не можете голосовать в опросах
    Вы не можете прикреплять файлы к сообщениям
    Вы можете скачивать файлы
    Хичкок / Hitchcock [2012 г., драма, история, биография, Blu-Ray, Дубляж, лицензия] смотреть онлайн, скачать торрент picoco.icu