2 сезон

iTunes

MVO

1

2 сезон

iTunes

iTunes

1 сезон

RePack

30

Ultimate

ВАЖНО

ИГРА 18+

pack

RePack

MK11
pack

Легкие деньги

RePack

jed

RePack

fifa19

RePack

RDR2

RePack

NEED FOR SPEED™ PAYBACK

4 сезон

9 сезон

Бесстыжие 9 сезон

Все сериалы

все сериалы на PB.wtf

RePack

FAR CRY 5

Anonymous, доброй ночи, мы не успеваем собрать деньги на оплату серверов за декабрь и январь, помогите нам пожалуйста в это трудное время. В качестве благодарности мы отключим Вам всю рекламу на сайте (укажите свой ник в строку Ваше имя)!

×
  
Magnet ссылка

Золото (Андрей Мармонтов) [2012, Россия, драма, комедия, SATRip] piratbit.org

Золото через торрент piratbit.org

Размер: 1.37 GB | Добавлен: 6 лет 11 мес. назад | Торрент скачан:418 раз
Скачать  

31-01-2014 22:58 Золото Скачать торрент  


Золото

«Проиграл - плати»

  • Год выпуска:2012
  • Страна:Россия
  • Жанр:драма, комедия

  • Продолжительность: 01:50:04
  • Перевод:Не требуется

  • Субтитры: Нет
    • Режиссер:Андрей Мармонтов

  • В ролях: Сергей Безруков (Гордей Брагин), Ирина Скобцева (Татьяна Власьевна), Андрей Мерзликин (прокурор), Михаил Пореченков (купец Еремеев), Анна Герман (Дарья), Максим Шибаев (Михалко), Любовь Куликова (Аленка), Владимир Кабалин (отец Кондрат), Алексей Шемес (Федор Пазухов), Дарья Михайлова (Прасковья Пазухина), Валерий Величко (жандарм), Евгений Ганелин (дворянин)
    • Описание:
      Судебный пристав предъявляет семье Брагиных иск по карточным долгам пропавшего брата. Для расчётов - два месяца. Или Гордея, как брата должника ждёт арест и тюрьма. Выход один - бросить всё и бежать. Всех спасает золотая жила. Прииск быстро приносит богатство: теперь Гордей - золотопромышленник! Но новая беда - ещё хуже: деньги! Их слишком много! Все хотят получить их... И всё идёт не так... совсем не так...

    • Качество:SATRip
    • Формат:AVI
    • Видео кодек: XviD
    • Аудио кодек:MP3
    • Видео: XviD, 704x304 (2.35:1), 1583 kbps, 25 fps, Interlaced (Top Field First), 0,296 bpp
    • Аудио: MP3 / 2.0 / 48 kHz / 192 kbps /

    Код:

    General
    Complete name                            : D:ТорентыZoloto.2014.O.SATRip.1400MB.avi
    Format                                   : AVI
    Format/Info                              : Audio Video Interleave
    File size                                : 1.37 GiB
    Duration                                 : 1h 50mn
    Overall bit rate                         : 1 786 Kbps
    Writing application                      : VirtualDubMod 1.5.10.3 | www.virtualdub-fr.org || (build 2550/release)
    Writing library                          : VirtualDubMod build 2550/release

    Video
    ID                                       : 0
    Format                                   : MPEG-4 Visual
    Format profile                           : Advanced Simple@L5
    Format settings, BVOP                    : 1
    Format settings, QPel                    : No
    Format settings, GMC                     : No warppoints
    Format settings, Matrix                  : Custom
    Codec ID                                 : XVID
    Codec ID/Hint                            : XviD
    Duration                                 : 1h 50mn
    Bit rate                                 : 1 584 Kbps
    Width                                    : 704 pixels
    Height                                   : 304 pixels
    Display aspect ratio                     : 2.35:1
    Frame rate                               : 25.000 fps
    Color space                              : YUV
    Chroma subsampling                       : 4:2:0
    Bit depth                                : 8 bits
    Scan type                                : Progressive
    Compression mode                         : Lossy
    Bits/(Pixel*Frame)                       : 0.296
    Stream size                              : 1.22 GiB (89%)
    Writing library                          : XviD 1.2.1 (UTC 2008-12-04)

    Audio
    ID                                       : 1
    Format                                   : MPEG Audio
    Format version                           : Version 1
    Format profile                           : Layer 3
    Mode                                     : Joint stereo
    Codec ID                                 : 55
    Codec ID/Hint                            : MP3
    Duration                                 : 1h 50mn
    Bit rate mode                            : Constant
    Bit rate                                 : 192 Kbps
    Channel(s)                               : 2 channels
    Sampling rate                            : 48.0 KHz
    Compression mode                         : Lossy
    Stream size                              : 151 MiB (11%)
    Alignment                                : Aligned on interleaves
    Interleave, duration                     : 40 ms (1.00 video frame)
    Interleave, preload duration             : 504 ms


    Скриншоты:
    скриншот   скриншот   скриншот  

    Трейлеры к фильмам [2014]

    © Оформление by Raven
    piratbit.org



  • Скачать Золото через торрент http://i58.fastpic.ru/big/2013/0922/31/4683bcd4960801b02604b79f43d30631.png Скачать фильм Золото через торрент бесплантно в хорошем качестве Описание:Судебный пристав предъявляет семье Брагиных иск по карточным долгам пропавшего брата. Для расчётов - два месяца. Или Гордея, как ... 9.3 10 9
    Info! Золотая раздача, скачанное не засчитывается.
    Торрент: Зарегистрирован [2014-01-31 22:58] · скачан: 418 раз
    Статус: √ проверено
    Размер: 1.37 GB
    Как cкачать? Как скачать Золото через торрент | UTorrent

    % Раздел Тема Автор DL S | L
    RPG [ 10.57 GB ] Ведьмак Золотое издание [лицензияENG/RURPG / 3D / 3rd Person] DoTa Скачать
    1 | 0
    RPG [ 3.94 GB ] Магия крови. Золотое издание / Blood magic. Gold Edition [лицензия RU] Ubik1 Скачать
    2 | 0
    RPG [ 4.35 GB ] Fallout 3: Золотое издание [RePack Только RU] =Чувак= Скачать
    5 | 0
    Космические симуляторы [ 8.7 GB ] X3: Золотое Издание [Repack RUSimulator / 3D / Privateer/Trader ] IZnoGood Скачать
    1 | 1
    TBS (пошаговые стратегии) [ 6.13 GB ] Антология Galactic Civilization + бонус/Галактическая федерация CraZy_DoC Скачать
    1 | 0
    Фильмографии [ 57.12 GB ] Золотая коллекция Джеки Чана / Jackie Chana's gold collection [1980-2009 боевые искусства DVDRipVHSRip] DragonHard Скачать
    2 | 0
    RPG [ 1.8 GB ] Sacred:Князь Тьмы Золотое издание [RepackRURPG] diallo Скачать
    2 | 0

    28-11-2019 20:33  

    Отключить всю рекламу на сайте

    03-04-2014 07:38 Золото Скачать торрент  

    Насчёт "комедии" - в каком месте там смеяться?piratbit.org



    25-07-2014 09:25 Золото Скачать торрент  

    шел по кабельному, кусочек успел посмотреть, заинтересовал, спасибоpiratbit.org



      Дорогой пользователь! Огромная просьба, поблагодарите релизера, оцените раздачу и оставьте свои комментарий, если Вы скачали Золото через торрент бесплатно! Внесите свою лепту в развитие PiratBit!
      Комментировать посты могут только пользователи прошедшие не сложную регистрацию
      Показать сообщения:    

      Золото через торрент
      Скачать бесплатно Золото
      Золото скачать торрент
      Золото смотреть онлайн
      Cкачать фильм Золото бесплатно
      Золото скачать торрент в хорошем качестве
      Золото смотреть онлайн бесплатно в хорошем качестве


      Вы не можете начинать темы
      Вы не можете отвечать на сообщения
      Вы не можете редактировать свои сообщения
      Вы не можете удалять свои сообщения
      Вы не можете голосовать в опросах
      Вы не можете прикреплять файлы к сообщениям
      Вы можете скачивать файлы