Достать ножи: Стеклянная луковица

MVO

Добыча

Дубляж

Уэнсдэй

1 сезон

Тор

Дубляж

13 клиническая

1 сезон

Жестокая ночь

MVO

Одни из нас

1 сезон

Deluxe

pack

Рекомендуем

30

Пиратка

ВАЖНО

ВАЖНО

Ghostwire

Пиратка

jed

RePack

nioh2

RePack

RDR2

RePack

NEED FOR SPEED™ PAYBACK

RePack

скачать торрент

Кинопоиск HD

Острые козырьки 6 сезон

6 сезон

FAR CRY 6

RePack

скачать торрент

Лицензия

скачать торрент

MVO

1

1 сезон

скачать торрент

1 сезон

скачать торрент

Лицензия

  

Семь / Se7en (Дэвид Финчер) [1995 г., Триллер, криминал, детектив, Blu-Ray (1080p), MVO, AVO, Original]

Семь через торрент piratbit.org

Размер: 41.62 GB | Добавлен: 9 лет назад | Торрент скачан:44 раза
Смотреть онлайн | Скачать | Поддержите нас   

02-02-2014 07:57 Семь Скачать торрент  

Семь / Se7en

Год выпуска: 1995
Страна: США
Выпущено: Cecchi Gori Pictures, New Line Cinema
Жанр: Триллер, криминал, детектив
Продолжительность: 02:06:49
Перевод: Профессиональный многоголосый + Авторский
Субтитры: Русские, английские, японские, корейские, испанские, португальские, греческие, иврит, тайские, турецкие

Режиссер: Дэвид Финчер
Продюссер: Филлис Карлайл, Дэн Колсруд, Энн Копельсон
Сценарий: Эндрю Кевин Уокер
Бюджет: $33 000 000
Премьера в мире: 22 сентября 1995

IMDB 8.70 (670 177)


В ролях: Брэд Питт, Морган Фримен, Гвинет Пэлтроу, Кевин Спейси, Р. Ли Эрми, Ричард Шифф, Марк Бун Джуниор, Ричард Раундтри, Джон К. МакГинли, Рег Э. Кэти, Эндрю Кевин Уокер, Дэниэл Зацапа, Джон Кассини, Боб Макк, Питер Кромби

Описание: Детектив Уильям Сомерсет — ветеран уголовного сыска, мечтающий уйти на пенсию и уехать подальше от города и грешных обитателей. За 7 дней до пенсии на Сомерсета сваливаются две неприятности: молодой напарник Миллс и особо изощренное убийство. Острый ум опытного сыщика сразу определяет, что за этим преступлением, скорее всего, последуют другие. Новости подтверждают его догадку. Поняв, что убийца наказывает свои жертвы за совершенные ими смертные грехи, детектив встает перед выбором: вернуться к работе, либо уйти и передать дело своему менее опытному напарнику?

Качество: Blu-Ray (1080p)
Формат: BDAV
Видео кодек: VC-1
Аудио кодек: DTS / AC3
Видео: VC-1, 25444 Кбит/с, 1920x1080, 23.976 кадр/с
Аудио #1: Английский (DTS-HD MA, 8 ch, 5447 Кбит/с, 48.0 KHz)
Аудио #2: Русский (DTS-HD MA, 8 ch, ~ 5470 Кбит/с, 48.0 KHz) - профессиональный многоголосый (Позитив)
Аудио #3: Русский (DTS, 6 ch, 768 Кбит/с, 48.0 KHz) - авторский одноголосый (Сербин)
Аудио #4: Русский (AC3, 1 ch, 128 Кбит/с, 48.0 KHz) - авторский одноголосый (Гаврилов)
Аудио #5: Русский (AC3, 1 ch, 128 Кбит/с, 48.0 KHz) - авторский одноголосый (Визгунов)
Аудио #6: Русский (AC3, 1 ch, 128 Кбит/с, 48.0 KHz) - профессиональный многоголосый (СР Digital)
Аудио #7: Английский (AC3, 1 ch, 128 Кбит/с, 48.0 KHz)
Аудио #8: Английский (AC3, 1 ch, 128 Кбит/с, 48.0 KHz)
Аудио #9: Английский (AC3, 1 ch, 128 Кбит/с, 48.0 KHz)
Аудио #10: Английский (AC3, 2 ch, 192 Кбит/с, 48.0 KHz)
Оскар, 1996 год
Номинации (1):
Лучший монтаж

Премия канала «MTV», 1996 год
Победитель (3):
Лучший фильм
Самый желанный мужчина (Брэд Питт)
Лучший злодей (Кевин Спейси)
Номинации (1):
Лучший экранный дуэт (Брэд Питт, Морган Фриман)

Британская академия, 1996 год
Номинации (1):
Лучший оригинальный сценарий

Сатурн, 1996 год
Победитель (2):
Лучший сценарий
Лучший грим
Номинации (5):
Лучший режиссер (Дэвид Финчер)
Лучший актер (Морган Фриман)
Лучшая актриса второго плана (Гвинет Пэлтроу)
Лучшая музыка
Лучший приключенческий фильм или боевик
General
ID : 0 (0x0)
Complete name : /home/sb753/files/Se7en 1995 [rutracker.org Voland_].BluRay/BDMV/STREAM/00020.m2ts
Format : BDAV
Format/Info : Blu-ray Video
File size : 36.6 GiB
Duration : 2h 6mn
Overall bit rate mode : Variable
Overall bit rate : 41.3 Mbps
Maximum Overall bit rate : 48.0 Mbps

Video
ID : 4113 (0x1011)
Menu ID : 1 (0x1)
Format : VC-1
Format profile : Advanced@L3
Codec ID : 234
Duration : 2h 6mn
Bit rate : 34.7 Mbps
Width : 1 920 pixels
Height : 1 080 pixels
Display aspect ratio : 16:9
Frame rate : 23.976 fps
Chroma subsampling : 4:2:0
Bit depth : 8 bits
Scan type : Progressive
Compression mode : Lossy
Bits/(Pixel*Frame) : 0.698
Stream size : 30.8 GiB (84%)

Audio #1
ID : 4352 (0x1100)
Menu ID : 1 (0x1)
Format : DTS
Format/Info : Digital Theater Systems
Format profile : MA / Core
Muxing mode : Stream extension
Codec ID : 134
Duration : 2h 6mn
Bit rate mode : Variable
Bit rate : 1 597 Kbps / 1 510 Kbps
Channel(s) : 8 channels / 6 channels
Channel positions : Front: L C R, Side: L R, Back: L R, LFE / Front: L C R, Side: L R, LFE
Sampling rate : 48.0 KHz
Bit depth : 24 bits
Compression mode : Lossless / Lossy

Audio #2
ID : 4353 (0x1101)
Menu ID : 1 (0x1)
Format : DTS
Format/Info : Digital Theater Systems
Format profile : MA / Core
Muxing mode : Stream extension
Codec ID : 134
Duration : 2h 6mn
Bit rate mode : Variable
Bit rate : 1 597 Kbps / 1 510 Kbps
Channel(s) : 8 channels / 6 channels
Channel positions : Front: L C R, Side: L R, Back: L R, LFE / Front: L C R, Side: L R, LFE
Sampling rate : 48.0 KHz
Bit depth : 24 bits
Compression mode : Lossless / Lossy

Audio #3
ID : 4354 (0x1102)
Menu ID : 1 (0x1)
Format : DTS
Format/Info : Digital Theater Systems
Codec ID : 130
Duration : 2h 6mn
Bit rate mode : Constant
Bit rate : 754 Kbps
Channel(s) : 6 channels
Channel positions : Front: L C R, Side: L R, LFE
Sampling rate : 48.0 KHz
Bit depth : 24 bits
Compression mode : Lossy
Stream size : 684 MiB (2%)

Audio #4
ID : 4355 (0x1103)
Menu ID : 1 (0x1)
Format : AC-3
Format/Info : Audio Coding 3
Mode extension : CM (complete main)
Format settings, Endianness : Big
Codec ID : 129
Duration : 2h 6mn
Bit rate mode : Constant
Bit rate : 128 Kbps
Channel(s) : 1 channel
Channel positions : Front: C
Sampling rate : 48.0 KHz
Bit depth : 16 bits
Compression mode : Lossy
Stream size : 116 MiB (0%)

Audio #5
ID : 4356 (0x1104)
Menu ID : 1 (0x1)
Format : AC-3
Format/Info : Audio Coding 3
Mode extension : CM (complete main)
Format settings, Endianness : Big
Codec ID : 129
Duration : 2h 6mn
Bit rate mode : Constant
Bit rate : 128 Kbps
Channel(s) : 1 channel
Channel positions : Front: C
Sampling rate : 48.0 KHz
Bit depth : 16 bits
Compression mode : Lossy
Stream size : 116 MiB (0%)

Audio #6
ID : 4357 (0x1105)
Menu ID : 1 (0x1)
Format : AC-3
Format/Info : Audio Coding 3
Mode extension : CM (complete main)
Format settings, Endianness : Big
Codec ID : 129
Duration : 2h 6mn
Bit rate mode : Constant
Bit rate : 128 Kbps
Channel(s) : 1 channel
Channel positions : Front: C
Sampling rate : 48.0 KHz
Bit depth : 16 bits
Compression mode : Lossy
Stream size : 116 MiB (0%)

Audio #7
ID : 4358 (0x1106)
Menu ID : 1 (0x1)
Format : AC-3
Format/Info : Audio Coding 3
Mode extension : CM (complete main)
Format settings, Endianness : Big
Codec ID : 129
Duration : 2h 6mn
Bit rate mode : Constant
Bit rate : 128 Kbps
Channel(s) : 1 channel
Channel positions : Front: C
Sampling rate : 48.0 KHz
Bit depth : 16 bits
Compression mode : Lossy
Stream size : 116 MiB (0%)

Audio #8
ID : 4359 (0x1107)
Menu ID : 1 (0x1)
Format : AC-3
Format/Info : Audio Coding 3
Mode extension : CM (complete main)
Format settings, Endianness : Big
Codec ID : 129
Duration : 2h 6mn
Bit rate mode : Constant
Bit rate : 128 Kbps
Channel(s) : 1 channel
Channel positions : Front: C
Sampling rate : 48.0 KHz
Bit depth : 16 bits
Compression mode : Lossy
Stream size : 116 MiB (0%)

Audio #9
ID : 4360 (0x1108)
Menu ID : 1 (0x1)
Format : AC-3
Format/Info : Audio Coding 3
Mode extension : CM (complete main)
Format settings, Endianness : Big
Codec ID : 129
Duration : 2h 6mn
Bit rate mode : Constant
Bit rate : 128 Kbps
Channel(s) : 1 channel
Channel positions : Front: C
Sampling rate : 48.0 KHz
Bit depth : 16 bits
Compression mode : Lossy
Stream size : 116 MiB (0%)

Audio #10
ID : 4361 (0x1109)
Menu ID : 1 (0x1)
Format : AC-3
Format/Info : Audio Coding 3
Mode extension : CM (complete main)
Format settings, Endianness : Big
Codec ID : 129
Duration : 2h 6mn
Bit rate mode : Constant
Bit rate : 192 Kbps
Channel(s) : 2 channels
Channel positions : Front: L R
Sampling rate : 48.0 KHz
Bit depth : 16 bits
Compression mode : Lossy
Stream size : 174 MiB (0%)

Text #1
ID : 4608 (0x1200)
Menu ID : 1 (0x1)
Format : PGS
Codec ID : 144

Text #2
ID : 4609 (0x1201)
Menu ID : 1 (0x1)
Format : PGS
Codec ID : 144

Text #3
ID : 4610 (0x1202)
Menu ID : 1 (0x1)
Format : PGS
Codec ID : 144
Duration : 2h 6mn
Delay relative to video : 2s 794ms

Text #4
ID : 4611 (0x1203)
Menu ID : 1 (0x1)
Format : PGS
Codec ID : 144
Duration : 2h 6mn
Delay relative to video : 2s 878ms

Text #5
ID : 4612 (0x1204)
Menu ID : 1 (0x1)
Format : PGS
Codec ID : 144
Delay relative to video : 3s 921ms

Text #6
ID : 4613 (0x1205)
Menu ID : 1 (0x1)
Format : PGS
Codec ID : 144
Duration : 2h 6mn
Delay relative to video : 3s 3ms

Text #7
ID : 4614 (0x1206)
Menu ID : 1 (0x1)
Format : PGS
Codec ID : 144

Text #8
ID : 4615 (0x1207)
Menu ID : 1 (0x1)
Format : PGS
Codec ID : 144

Text #9
ID : 4616 (0x1208)
Menu ID : 1 (0x1)
Format : PGS
Codec ID : 144

Text #10
ID : 4617 (0x1209)
Menu ID : 1 (0x1)
Format : PGS
Codec ID : 144

Text #11
ID : 4618 (0x120A)
Menu ID : 1 (0x1)
Format : PGS
Codec ID : 144

Text #12
ID : 4619 (0x120B)
Menu ID : 1 (0x1)
Format : PGS
Codec ID : 144

Text #13
ID : 4620 (0x120C)
Menu ID : 1 (0x1)
Format : PGS
Codec ID : 144

Text #14
ID : 4621 (0x120D)
Menu ID : 1 (0x1)
Format : PGS
Codec ID : 144

Text #15
ID : 4622 (0x120E)
Menu ID : 1 (0x1)
Format : PGS
Codec ID : 144

Text #16
ID : 4623 (0x120F)
Menu ID : 1 (0x1)
Format : PGS
Codec ID : 144

Text #17
ID : 4624 (0x1210)
Menu ID : 1 (0x1)
Format : PGS
Codec ID : 144

Text #18
ID : 4625 (0x1211)
Menu ID : 1 (0x1)
Format : PGS
Codec ID : 144

Text #19
ID : 4626 (0x1212)
Menu ID : 1 (0x1)
Format : PGS
Codec ID : 144

Text #20
ID : 4627 (0x1213)
Menu ID : 1 (0x1)
Format : PGS
Codec ID : 144

Text #21
ID : 4628 (0x1214)
Menu ID : 1 (0x1)
Format : PGS
Codec ID : 144
Duration : 2h 6mn
Delay relative to video : 2s 961ms

Text #22
ID : 4629 (0x1215)
Menu ID : 1 (0x1)
Format : PGS
Codec ID : 144
Duration : 2h 6mn
Delay relative to video : 2s 669ms

Text #23
ID : 4630 (0x1216)
Menu ID : 1 (0x1)
Format : PGS
Codec ID : 144
Duration : 2h 6mn
Delay relative to video : 3s 86ms

Text #24
ID : 4631 (0x1217)
Menu ID : 1 (0x1)
Format : PGS
Codec ID : 144
Duration : 2h 6mn
Delay relative to video : 2s 753ms

Text #25
ID : 4632 (0x1218)
Menu ID : 1 (0x1)
Format : PGS
Codec ID : 144
Delay relative to video : 4s 87ms

Text #26
ID : 4633 (0x1219)
Menu ID : 1 (0x1)
Format : PGS
Codec ID : 144
Duration : 2h 6mn
Delay relative to video : 3s 837ms

Text #27
ID : 4634 (0x121A)
Menu ID : 1 (0x1)
Format : PGS
Codec ID : 144
Duration : 2h 6mn
Delay relative to video : 3s 45ms

Text #28
ID : 4635 (0x121B)
Menu ID : 1 (0x1)
Format : PGS
Codec ID : 144
Duration : 2h 6mn
Delay relative to video : 2s 753ms
- Комментарии создателей - 4 шт.;
- Ранние раскадровки;
- Черновая версия заглавных титров;
- За кадром;
- Фотогаллерея;
- Финальная версия заглавных титров;
- Комментарии к созданию титров;
- Удаленные сцены;
- Съемочный процесс;
- Альтернативные концовки;
- Трейлеры;
- История создания книги Джона Доу;
- История создания видеоверсии фильма;
- Буклет
(Почти на все дополнительные материалы присутствует профессиональный одноголосый перевод или русские субтитры!!)



Скачать Семь через торрент http://i4-imageban-ru.translate.goog/out/2014/02/02/8fe09d513d2fa41682ef2f1da3c8bc77.png Скачать, смотреть онлайн Семь бесплантно в хорошем качестве Описание: Детектив Уильям Сомерсет — ветеран уголовного сыска, мечтающий уйти на пенсию и уехать подальше от города и грешных обитателей. ... 10 10 4
Info! Золотая раздача, скачанное не засчитывается.
Торрент: Зарегистрирован [2014-02-02 07:57] · скачан: 44 раз
Статус: √ проверено
Размер: 41.62 GB
Как cкачать? Как скачать Семь через торрент | UTorrent

% Раздел Тема Автор DL S | L
Фильмы [HD 720p, 1080p] (Хороший звук DUB, MVO) [ 10.1 GB ] Семь / Se7en | MVO | 720p от _denis_100 / NNNB _denis_100 Скачать
1 | 0
Фильмы [HD 720p, 1080p] (Хороший звук DUB, MVO) [ 19.65 GB ] Семь / Se7en / Seven [US Remastered | MVO | 720p Messa-fan Скачать
1 | 0

28-11-2019 20:33  


Отключить вcю реклaмy на сайте, в т.ч. и в плеере онлайн просмотра!

02-02-2014 11:19 Семь Скачать торрент  

Отличный фильм в отличном качестве



    Дорогой пользователь! Огромная просьба, поблагодарите релизера, оцените раздачу и оставьте свои комментарий, если Вы скачали Семь через торрент бесплатно!!
    Комментировать посты могут только пользователи прошедшие не сложную регистрацию
    Показать сообщения:    


    Семь через торрент
    Скачать бесплатно Семь
    Семь скачать торрент
    Семь смотреть онлайн
    Cкачать фильм Семь бесплатно
    Семь скачать торрент в хорошем качестве
    Семь смотреть онлайн бесплатно в хорошем качестве
    Вы не можете начинать темы
    Вы не можете отвечать на сообщения
    Вы не можете редактировать свои сообщения
    Вы не можете удалять свои сообщения
    Вы не можете голосовать в опросах
    Вы не можете прикреплять файлы к сообщениям
    Вы можете скачивать файлы
    Семь / Se7en [1995 г., Триллер, криминал, детектив, Blu-Ray , MVO, AVO, Original] смотреть онлайн, скачать торрент picoco.icu