2 сезон

iTunes

MVO

1

2 сезон

iTunes

iTunes

1 сезон

RePack

30

Новинка

ВАЖНО

ИГРА 18+

pack

RePack

MK11
pack

Легкие деньги

RePack

jed

RePack

fifa19

RePack

RDR2

RePack

NEED FOR SPEED™ PAYBACK

4 сезон

9 сезон

Бесстыжие 9 сезон

Все сериалы

все сериалы на PB.wtf

RePack

FAR CRY 5

Anonymous, доброе утро, мы не успеваем собрать деньги на оплату серверов за декабрь и январь, помогите нам пожалуйста в это трудное время. В качестве благодарности мы отключим Вам всю рекламу на сайте (укажите свой ник в строку Ваше имя)!

×
  
Magnet ссылка

Море (Александра Стреляная) [2012, Россия, драма, DVDRip] piratbit.org

Море через торрент piratbit.org

Размер: 1.37 GB | Добавлен: 6 лет 11 мес. назад | Торрент скачан:89 раз
Скачать  

02-02-2014 11:49 Море Скачать торрент  


Море


Год выпуска:2012
Страна:Россия
Жанр:драма, комедия
Продолжительность: 01:18:45
Перевод:Не требуется

Субтитры: Нет
Режиссер:Александра Стреляная
В ролях:Таисия Крамми, Илья Ригин, Людмила Шевченко
  • Описание:
    Посреди шумной московской жизни ему всегда снилось незыблемое Северное море. На ветреном побережье она грезила небом и чем-то несбыточным. Однажды он решился и вырвался из суеты столицы. Тогда они наконец встретились. В этот момент началось их лето, наполненное сомнениями, радостями и приключениями, свойственными одной только юности. Ему как режиссеру во всем видится кино. Ей наивно кружит голову первая любовь. И лишь жители берега с любопытством наблюдают за тем, как крепнет их чувство. На прекраснейшем месте земли, Кольском полуострове, они обретут все, что искали среди дикой природы.

    Качество: DVDRip
    Формат: AVI
    Видео кодек: XviD
    Аудио кодек:AC3
    Видео: XviD, 720x304 (2.35:1), 2026 kbps, 25 fps, 0,370 bpp
    Аудио: AC3 / 5.1 / 48 kHz / 448 kbps / 16 bit

Код:

General
Complete name                            : D:ТорентыMore.2012.O.DVDRip.1400Mb.avi
Format                                   : AVI
Format/Info                              : Audio Video Interleave
File size                                : 1.37 GiB
Duration                                 : 1h 18mn
Overall bit rate                         : 2 484 Kbps
Writing application                      : VirtualDubMod 1.5.10.3 | www.virtualdub-fr.org || (build 2550/release)
Writing library                          : VirtualDubMod build 2550/release

Video
ID                                       : 0
Format                                   : MPEG-4 Visual
Format profile                           : Advanced Simple@L5
Format settings, BVOP                    : 2
Format settings, QPel                    : No
Format settings, GMC                     : No warppoints
Format settings, Matrix                  : Default (MPEG)
Codec ID                                 : XVID
Codec ID/Hint                            : XviD
Duration                                 : 1h 18mn
Bit rate                                 : 2 027 Kbps
Width                                    : 720 pixels
Height                                   : 304 pixels
Display aspect ratio                     : 2.35:1
Frame rate                               : 25.000 fps
Color space                              : YUV
Chroma subsampling                       : 4:2:0
Bit depth                                : 8 bits
Scan type                                : Progressive
Compression mode                         : Lossy
Bits/(Pixel*Frame)                       : 0.370
Stream size                              : 1.11 GiB (82%)
Writing library                          : XviD 1.2.1 (UTC 2008-12-04)

Audio
ID                                       : 1
Format                                   : AC-3
Format/Info                              : Audio Coding 3
Mode extension                           : CM (complete main)
Codec ID                                 : 2000
Duration                                 : 1h 18mn
Bit rate mode                            : Constant
Bit rate                                 : 448 Kbps
Channel(s)                               : 6 channels
Channel positions                        : Front: L C R, Side: L R, LFE
Sampling rate                            : 48.0 KHz
Bit depth                                : 16 bits
Compression mode                         : Lossy
Stream size                              : 252 MiB (18%)
Alignment                                : Split accross interleaves
Interleave, duration                     : 40 ms (1.00 video frame)
Interleave, preload duration             : 500 ms


Скриншоты:

Трейлеры к фильмам [2014]

© Оформление by Raven
piratbit.org



Скачать Море через торрент https://pic.kartinco.top/images/6/ordi9.jpg Скачать фильм Море через торрент бесплантно в хорошем качестве Описание:Посреди шумной московской жизни ему всегда снилось незыблемое Северное море. На ветреном побережье она грезила небом и чем-то ... 10 10 3
Info! Золотая раздача, скачанное не засчитывается.
Торрент: Зарегистрирован [2014-02-02 11:49] · скачан: 89 раз
Статус: √ проверено
Размер: 1.37 GB
Как cкачать? Как скачать Море через торрент | UTorrent

% Раздел Тема Автор DL S | L
Фильмы до 2000 г. [ 1.92 GB ] Глубокое синее море / Deep Blue Sea [1999 HDTVRip] feldeger Скачать
1 | 1
Иностранные мультфильмы [ 700 MB ] Русалочка 2: Возвращение в море / The Little Mermaid II: Return to the Sea [2000 мюзикл мультфильм DVDRip] Anonymous Скачать
1 | 0
Фильмы 2009 [ 1.47 GB ] На море! [2009 DVDRip лицензия] kuvagen Скачать
1 | 0
Фильмы [HD 720p, 1080p] (Хороший звук DUB, MVO) [ 9.32 GB ] Заложница / Taken [2008 BDRip ] Anonymous Скачать
1 | 1
Сборники (HD Video) [ 35.05 GB ] Пираты Карибского Моря. Квадрология / Pirates of the Caribbean. Quadrilogy [2003 2006 2007 2011 BDRip 1080p] от R.G. nICE Films genkasper Скачать
1 | 0
Фильмы [HD 720p, 1080p] (Хороший звук DUB, MVO) [ 12.02 GB ] Хозяин морей: На краю Земли / Master and Commander: The Far Side of the World [ BDRip ] Flint3 Скачать
1 | 0
Документальные фильмы 3D [ 4.48 GB ] Чудища морей 3D: Доисторическое приключение / Sea Monsters: A Prehistoric Adventure [2007 мультфильм документальный короткометражка HDRip] Anaglyph red'cyan slaventi-69 Скачать
1 | 0

28-11-2019 20:33  

Отключить всю рекламу на сайте


    Дорогой пользователь! Огромная просьба, поблагодарите релизера, оцените раздачу и оставьте свои комментарий, если Вы скачали Море через торрент бесплатно! Внесите свою лепту в развитие PiratBit!
    Комментировать посты могут только пользователи прошедшие не сложную регистрацию
    Показать сообщения:    

    Море через торрент
    Скачать бесплатно Море
    Море скачать торрент
    Море смотреть онлайн
    Cкачать фильм Море бесплатно
    Море скачать торрент в хорошем качестве
    Море смотреть онлайн бесплатно в хорошем качестве


    Вы не можете начинать темы
    Вы не можете отвечать на сообщения
    Вы не можете редактировать свои сообщения
    Вы не можете удалять свои сообщения
    Вы не можете голосовать в опросах
    Вы не можете прикреплять файлы к сообщениям
    Вы можете скачивать файлы