новый адрес
Мега распродажа FORZA HORIZON 4 ULTIMATE+ВСЕ DLC+ОНЛАЙН всего за 499р. 349 руб. (супер цена). Внимание количество ограничено!!!

iTunes

1+1

iTunes

мы

iTunes

1

iTunes

Чернобыль

iTunes

Ральф против интернета

Лицензия

ПШазам

Лицензия

Оно 2

Лицензия

30
pack

ВАЖНО

!!Акция!!

Alien_RageХит недели

RePack

Resident Evil 21

ИГРА 18+

pack

RePack

Metro:Exodus

!!Акция!!

Alien_Rage

RePack

fifa19

RePack

Assassins Creed: Odyssey

RePack

NEED FOR SPEED™ PAYBACK

3 сезон

9 сезон

Бесстыжие 9 сезон

Все сериалы

все сериалы на PB.wtf

RePack

FAR CRY 5
Ребята, катастрофически не хватает 1900р. для оплаты серверов за Октябрь (всвязи с блокировками трафик упал в 3 раза), 1-2р., выручайте.
  

Альпы 3D: Снежные ландшафты / Alps 3D - Paradise of Europe (Аттила Тенки) [2013 г., Документальный, природа, флора, фауна, горы, 2D, 3D / Blu-Ray (1080p), Дубляж] piratbit.org

Альпы 3D: Снежные ландшафты через торрент piratbit.org

Размер: 17.17 GB | Добавлен: 5 лет 9 мес. назад | Торрент скачан:82 раза
Скачать  

03-02-2014 06:54 Альпы 3D: Снежные ландшафты Скачать торрент  

Альпы 3D: Снежные ландшафты / Alps 3D - Paradise of Europe

Год выпуска: 2013
Страна: Германия
Выпущено: Los Banditos Films
Жанр: Документальный, природа, флора, фауна, горы
Продолжительность: 01:04:36
Перевод: Дубляж

Режиссер: Аттила Тенки
Продюссер: Аттила Тенки
Сценарий: Аттила Тенки



Описание: Альпы - самые высокие горы в Европе. И самые популярные. Миллионы туристов ежегодно посещают альпийские курорты, чтобы насладиться великолепием живописных пейзажей. Документальный фильм в формате 3D позволит вам оказаться в этих удивительных по своей красоте местах и понять, что лучше гор могут быть только горы.

Доп. информация:
Релиз воспроизводится как в 3D, так и в 2D!

Качество: Blu-Ray (1080p)
Формат: BDAV
Видео кодек: AVC
Аудио кодек: DTS-HD / AC3
Видео: MPEG-4 AVC, 19.0 Мбит/с, 1920x1080, 23.976 кадр/с
Аудио#1: Russian: DTS-HD MA, 6 ch, 4063 Кбит/с, 48.0 KHz
Аудио#2: Russian: AC3, 6 ch, 384 Кбит/с, 48.0 KHz
Аудио#3: English: DTS-HD MA, 6 ch, 3742 Кбит/с, 48.0 KHz
General
ID : 0 (0x0)
Complete name : H:АльпыBDMVSTREAM0000.m2ts
Format : BDAV
Format/Info : Blu-ray Video
File size : 13.1 GiB
Duration : 1h 4mn
Overall bit rate mode : Variable
Overall bit rate : 29.1 Mbps
Maximum Overall bit rate : 42.0 Mbps

Video
ID : 4113 (0x1011)
Menu ID : 1 (0x1)
Format : AVC
Format/Info : Advanced Video Codec
Format profile : High@L4.1
Format settings, CABAC : Yes
Format settings, ReFrames : 4 frames
Format settings, GOP : M=3, N=24
Codec ID : 27
Duration : 1h 4mn
Bit rate mode : Variable
Bit rate : 22.0 Mbps
Maximum bit rate : 25.0 Mbps
Width : 1 920 pixels
Height : 1 080 pixels
Display aspect ratio : 16:9
Frame rate : 23.976 fps
Standard : NTSC
Color space : YUV
Chroma subsampling : 4:2:0
Bit depth : 8 bits
Scan type : Progressive
Bits/(Pixel*Frame) : 0.443
Stream size : 9.93 GiB (76%)
Color primaries : BT.709-5, BT.1361, IEC 61966-2-4, SMPTE RP177
Transfer characteristics : BT.709-5, BT.1361
Matrix coefficients : BT.709-5, BT.1361, IEC 61966-2-4 709, SMPTE RP177

Audio #1
ID : 4352 (0x1100)
Menu ID : 1 (0x1)
Format : DTS
Format/Info : Digital Theater Systems
Format profile : MA / Core
Muxing mode : Stream extension
Codec ID : 134
Duration : 1h 4mn
Bit rate mode : Variable
Bit rate : 2 911 Kbps / 1 510 Kbps
Channel(s) : 6 channels
Channel positions : Front: L C R, Side: L R, LFE
Sampling rate : 48.0 KHz
Bit depth : 24 bits
Compression mode : Lossless / Lossy

Audio #2
ID : 4353 (0x1101)
Menu ID : 1 (0x1)
Format : AC-3
Format/Info : Audio Coding 3
Mode extension : CM (complete main)
Codec ID : 129
Duration : 1h 4mn
Bit rate mode : Constant
Bit rate : 384 Kbps
Channel(s) : 6 channels
Channel positions : Front: L C R, Side: L R, LFE
Sampling rate : 48.0 KHz
Bit depth : 16 bits
Compression mode : Lossy
Stream size : 177 MiB (1%)

Audio #3
ID : 4354 (0x1102)
Menu ID : 1 (0x1)
Format : DTS
Format/Info : Digital Theater Systems
Format profile : MA / Core
Muxing mode : Stream extension
Codec ID : 134
Duration : 1h 4mn
Bit rate mode : Variable
Bit rate : 2 596 Kbps / 1 510 Kbps
Channel(s) : 6 channels
Channel positions : Front: L C R, Side: L R, LFE
Sampling rate : 48.0 KHz
Bit depth : 24 bits
Compression mode : Lossless / Lossy

Text
ID : 4608 (0x1200)
Menu ID : 1 (0x1)
Format : PGS
Codec ID : 144
Delay relative to video : 1s 835ms
piratbit.org



Скачать Альпы 3D: Снежные ландшафты через торрент http://cs608827.vk.me/v608827651/5d8c/5LeAFUq8ths.jpg Скачать фильм Альпы 3D: Снежные ландшафты через торрент бесплантно в хорошем качестве Описание: Альпы - самые высокие горы в Европе. И самые популярные. Миллионы туристов ежегодно посещают альпийские курорты, чтобы ... 10 10 7
Info! Золотая раздача, скачанное не засчитывается.
Торрент: Зарегистрирован [2014-02-03 06:54] · скачан: 82 раз
Статус: √ проверено
Размер: 17.17 GB
Как cкачать? Как скачать Альпы 3D: Снежные ландшафты через торрент | qTorrent


>> Регистрируемся здесь <<






Отзывы и комментарии о схеме читаем и пишем здесь: ---> Отзывы и комментарии о схеме

Новые благодарочки в телеграм довольных пользователей:
скриншот   скриншот   скриншот   скриншот   скриншот
    Дорогой пользователь! Огромная просьба, поблагодарите релизера, оцените раздачу и оставьте свои комментарий, если Вы скачали Альпы 3D: Снежные ландшафты через торрент бесплатно! Внесите свою лепту в развитие PiratBit!
    Комментировать посты могут только пользователи прошедшие не сложную регистрацию
    Показать сообщения:    

    Альпы 3D: Снежные ландшафты через торрент
    Скачать бесплатно Альпы 3D: Снежные ландшафты
    Альпы 3D: Снежные ландшафты скачать торрент
    Альпы 3D: Снежные ландшафты смотреть онлайн
    Cкачать фильм Альпы 3D: Снежные ландшафты бесплатно
    Альпы 3D: Снежные ландшафты скачать торрент в хорошем качестве
    Альпы 3D: Снежные ландшафты смотреть онлайн бесплатно в хорошем качестве


    Вы не можете начинать темы
    Вы не можете отвечать на сообщения
    Вы не можете редактировать свои сообщения
    Вы не можете удалять свои сообщения
    Вы не можете голосовать в опросах
    Вы не можете прикреплять файлы к сообщениям
    Вы можете скачивать файлы