1 сезон

3 сезон

iTunes

1

iTunes

MVO

iTunes

13

1 сезон

RePack

30

Deluxe

pack

Лицензия

ВАЖНО

ИГРА 18+

pack

RePack

MK11

RePack

jed

RePack

fifa19

RePack

RDR2

RePack

NEED FOR SPEED™ PAYBACK

4 сезон

9 сезон

Бесстыжие 9 сезон

Все сериалы

все сериалы на PB.wtf

RePack

FAR CRY 5

Anonymous, доброй ночи, мы катастрофически не успеваем собрать деньги на оплату серверов, помогите нам пожалуйста 5,10,15р., для нас важна любая помощь . В качестве благодарности мы отключим Вам всю рекламу на сайте (укажите свой ник в строку Ваше имя)!

×
  
Magnet ссылка

Спартак / Spartacus (Роберт Дорнхельм) [2004 г., Исторический, драма, DVDRip, Профессиональный многоголосый (закадровый)] piratbit.org

Спартак через торрент piratbit.org

Размер: 2.84 GB | Добавлен: 7 лет 5 мес. назад | Торрент скачан:171 раз
Скачать  

03-02-2014 14:54 Спартак Скачать торрент  

Спартак / Spartacus

Год выпуска: 2004
Страна: США
Жанр: Исторический, драма
Продолжительность: 02:46:36
Перевод: Профессиональный многоголосый (закадровый)
Субтитры: Нет

Режиссер: Роберт Дорнхельм
Продюссер: Мишель Греко, Тед Курдила, Анджела Манкусо
Сценарий: Ховард Фаст, Роберт Шенккан

Премьера в мире: 18 апреля 2004



В ролях: Горан Виснич, Алан Бэйтс, Ангус Макфэдьен, Рона Митра, Иэн МакНис, Джеймс Фрэйн, Хенри Симмонс, Росс Кемп, Бен Кросс, Христо Шопов

Описание: 72 год до Рождества Христова. Великая Римская Империя правит античным миром своей железной рукой. Каждая новая страна, которую захватывают имперские центурионы, становится новым источником свежих рабов для жестоких римских хозяев.
Проданный в рабство ещё ребенком Спартак прошел страшный путь лишений и истязаний, который закалил будущего вождя угнетённых и сделал его сильным воином. Именно этому человеку предстояло бросить вызов Римской Империи и стать предводителем грандиозного восстания рабов, навсегда вошедшего в историю человечества!

Качество: DVDRip
Формат: AVI
Видео кодек: XviD
Аудио кодек: AC3
Видео: 720x400 (1.80:1), 25 fps, XviD MPEG-4 ~2048 kbps avg, 0.28 bit/pixel
Аудио: 48 kHz, AC3 Dolby Digital, 3/2 (L,C,R,l,r) + LFE ch, ~384.00 kbps avg





Общее
Полное имя : E:Спартак (2004) DVDRip.avi
Формат : AVI
Формат/Информация : Audio Video Interleave
Профиль формата : OpenDML
Размер файла : 2,84 Гбайт
Продолжительность : 2 ч. 46 м.
Общий поток : 2440 Кбит/сек
Программа кодирования : VirtualDubMod 1.5.10.2 (build 2540/release)
Библиотека кодирования : VirtualDubMod build 2540/release

Видео
Идентификатор : 0
Формат : MPEG-4 Visual
Профиль формата : Advanced Simple@L5
Параметр BVOP формата : 2
Параметр QPel формата : Нет
Параметр GMC формата : Без точки перехода
Параметр матрицы формата : Default (H.263)
Режим смешивания : Сжатый битовый поток
Идентификатор кодека : XVID
Идентификатор кодека/Подсказка : XviD
Продолжительность : 2 ч. 46 м.
Битрейт : 2045 Кбит/сек
Ширина : 720 пикселей
Высота : 400 пикселей
Соотношение сторон : 16:9
Частота кадров : 25,000 кадров/сек
Цветовое пространство : YUV
Субдискретизация насыщенности : 4:2:0
Битовая глубина : 8 бит
Тип развёртки : Прогрессивная
Метод сжатия : С потерями
Бит/(Пиксели*Кадры) : 0.284
Размер потока : 2,38 Гбайт (84%)
Библиотека кодирования : XviD 1.2.1 (UTC 2008-12-04)

Аудио
Идентификатор : 1
Формат : AC-3
Формат/Информация : Audio Coding 3
Расширение режима : CM (complete main)
Параметр Endianness формата : Big
Идентификатор кодека : 2000
Продолжительность : 2 ч. 46 м.
Вид битрейта : Постоянный
Битрейт : 384 Кбит/сек
Каналы : 6 каналов
Расположение каналов : Front: L C R, Side: L R, LFE
Частота : 48,0 КГц
Битовая глубина : 16 бит
Метод сжатия : С потерями
Размер потока : 458 Мбайт (16%)
Выравнивание : Разделение по промежуткам
Продолжительность промежутка : 40 мс. (1,00 видеокадр)
Время предзагрузки промежутка : 500 мс.
piratbit.org



Скачать Спартак через торрент http://6.firepic.org/6/images/2014-02/03/q1cugw1mdo6p.jpg Скачать фильм Спартак через торрент бесплантно в хорошем качестве Описание: 72 год до Рождества Христова. Великая Римская Империя правит античным миром своей железной рукой. Каждая новая страна, которую ... 9.7 10 15
Info! Золотая раздача, скачанное не засчитывается.
Торрент: Зарегистрирован [2014-02-03 14:54] · скачан: 171 раз
Статус: √ проверено
Размер: 2.84 GB
Как cкачать? Как скачать Спартак через торрент | UTorrent

% Раздел Тема Автор DL S | L
Ultra HD (UHD: 2K, 4K, 8K) — видео сверхвысокой чёткости [ 74.62 GB ] Спартак / Spartacus [1960 Исторический UHD BDRemux 2160p ] [GER Transfer] DUB+MVO+DVO+AVO bober100 Скачать
1 | 0
Ultra HD (UHD: 2K, 4K, 8K) — видео сверхвысокой чёткости [ 61.01 GB ] Спартак / Spartacus [1960 военный биография история UHD BDRemux 2160p] от селезень GER Transfer Russian Mafia Скачать
1 | 0
Зарубежные сериалы [ 27.17 GB ] Спартак: Боги арены / Spartacus: Gods of the Arena / Сезоны: 1 / Серии: 1-6 из 6 [2011 биография история BDRip 1080p] [MVO] killermax2013 Скачать
1 | 0
Зарубежные сериалы [ 13.61 GB ] Спартак: Боги арены / Spartacus: Gods of the Arena / Сезоны: 1 / Серии: 1-6 из 6 [2011 биография история BDRip 720p] MVO [TVShows] bober100 Скачать
1 | 0
Зарубежные сериалы [ 25.2 GB ] Спартак: Кровь и песок / Spartacus: Blood and Sand / Сезон: 1 / Серии: 1-13 из 13 [2010 BDRip 720p] MVO [TVShows] bober100 Скачать
1 | 0
Зарубежные сериалы [ 47.42 GB ] Спартак: Кровь и песок / Spartacus: Blood and Sand / Сезон: 1 / Серии: 1-13 из 13 [2010 BDRip 1080p] MVO [TVShows] bober100 Скачать
1 | 0
Лига Европы [ 3.67 GB ] Лига Европы 19-2020 / 3-й квалификационный раунд / 2-й матч / Спартак - Тун / Spartak - Thun / Матч Премьер HD [15.08.2019 Футбол IPTV/1080p/25fps MKV/H.264 RU] bober100 Скачать
1 | 0

28-11-2019 20:33  

Отключить всю рекламу на сайте

03-02-2014 17:23 Спартак Скачать торрент  

На последнем скрине Жирика зарезали что-ли?? worry piratbit.org



03-02-2014 17:56 Спартак Скачать торрент  

Mitrillus писал(а):

На последнем скрине Жирика зарезали что-ли?? worry

Действительноpiratbit.org



03-02-2014 18:42 Спартак Скачать торрент  

Mitrillus писал(а):

На последнем скрине Жирика зарезали что-ли?? worry

В точку!!! piratbit.org



    Дорогой пользователь! Огромная просьба, поблагодарите релизера, оцените раздачу и оставьте свои комментарий, если Вы скачали Спартак через торрент бесплатно! Внесите свою лепту в развитие PiratBit!
    Комментировать посты могут только пользователи прошедшие не сложную регистрацию
    Показать сообщения:    

    Спартак через торрент
    Скачать бесплатно Спартак
    Спартак скачать торрент
    Спартак смотреть онлайн
    Cкачать фильм Спартак бесплатно
    Спартак скачать торрент в хорошем качестве
    Спартак смотреть онлайн бесплатно в хорошем качестве


    Вы не можете начинать темы
    Вы не можете отвечать на сообщения
    Вы не можете редактировать свои сообщения
    Вы не можете удалять свои сообщения
    Вы не можете голосовать в опросах
    Вы не можете прикреплять файлы к сообщениям
    Вы можете скачивать файлы