Достать ножи: Стеклянная луковица

MVO

Добыча

Дубляж

Уэнсдэй

1 сезон

Тор

Дубляж

13 клиническая

1 сезон

Жестокая ночь

MVO

Одни из нас

1 сезон

Deluxe

pack

Рекомендуем

30

Пиратка

ВАЖНО

ВАЖНО

Ghostwire

Пиратка

jed

RePack

nioh2

RePack

RDR2

RePack

NEED FOR SPEED™ PAYBACK

RePack

скачать торрент

Кинопоиск HD

Острые козырьки 6 сезон

6 сезон

FAR CRY 6

RePack

скачать торрент

Лицензия

скачать торрент

MVO

1

1 сезон

скачать торрент

1 сезон

скачать торрент

Лицензия

  

Вокруг Света за 80 Дней / Around the World in 80 Days (Фрэнк Корачи) [2004 г., Боевик, комедия, приключения, семейный, вестерн, BD-Remux, Дубляж]

Вокруг Света за 80 Дней через торрент piratbit.org

Размер: 32.42 GB | Добавлен: 8 лет 11 мес. назад | Торрент скачан:11 раз
Смотреть онлайн | Скачать | Поддержите нас   

07-02-2014 14:14 Вокруг Света за 80 Дней Скачать торрент  

Вокруг Света за 80 Дней / Around the World in 80 Days
Год выпуска: 2004
Страна: Германия, США, Великобритания, Ирландия
Жанр: Боевик, комедия, приключения, семейный, вестерн
Продолжительность: 02:00:06
Перевод: Дубляж
Субтитры: Русские, английские

Режиссер: Фрэнк Корачи
Продюссер: Филлис Алиа, Билл Бадалато, Стивен Баркер
Сценарий: Дэвид Н. Титчер, Дэвид Бенулло, Дэвид Эндрю Голдстин

Бюджет: $110 000 000
Премьера в мире: 13 июня 2004



В ролях: Джеки Чан, Стив Кугэн, Роберт Файф, Джим Броудбент, Иэн МакНис, Дэвид Райалл, Роджер Хэммонд, Адам Годли, Карен Мок, Ховард Купер

Описание: Эксцентричный лондонский изобретатель Филеас Фогг раскрыл тайны полетов, электричества и многие другие, но общество не принимает его, считая сумасшедшим. Фоггу очень хочется, чтобы к нему относились серьезно, и он заключает необычное пари с лордом Келвином, главой Королевской академии наук: он берется совершить путешествие вокруг земного шара не более чем за 80 дней.
Вместе со своим лакеем Паспарту и жаждущей острых ощущений французской художницей Моник Фогг пускается в безумную, захватывающую кругосветную гонку по суше, морю и воздуху. Во время головокружительного путешествия наши герои попадают в самые экзотические уголки планеты. В пути их ждут многочисленные приключения и препятствия…

Качество: BD-Remux
Формат: M2TS
Видео кодек: H.264
Аудио кодек: AC3
Видео: MPEG-4 AVC, 33000 kbps / 1080p / 23.976 fps / 16:9 / High Profile 4.1
Аудио#1: Русский дубляж R5, Dolby Digital / 5.1 / 48 kHz / 448 kbps
Аудио#2: Русский двухголосый Tycoon, Dolby Digital / 5.1 / 48 kHz / 384 kbps
Аудио#3: Английский, Dolby TrueHD / 5.1 / 1499 kbps / 48 kHz / 16-bit (AC3 Embedded: 5.1 / 48 kHz / 640 kbps)








Общее
Идентификатор : 1 (0x1)
Полное имя : D:На дискеВокруг Света за 80 Дней ~ Around the World in 80 Days (2004) BD-Remux.m2ts
Формат : BDAV
Формат/Информация : Blu-ray Video
Размер файла : 32,4 Гбайт
Продолжительность : 2 ч. 0 м.
Режим общего битрейта : Переменный
Общий поток : 38,6 Мбит/сек
Максимальный общий битрейт : 35,5 Мбит/сек

Видео
Идентификатор : 4113 (0x1011)
Идентификатор меню : 1 (0x1)
Формат : AVC
Формат/Информация : Advanced Video Codec
Профиль формата : High@L4.1
Параметр CABAC формата : Да
Параметр ReFrames формата : 4 кадра
Идентификатор кодека : 27
Продолжительность : 2 ч. 0 м.
Вид битрейта : Постоянный
Битрейт : 35,6 Мбит/сек
Номинальный битрейт : 33,0 Мбит/сек
Ширина : 1920 пикселей
Высота : 1080 пикселей
Соотношение сторон : 16:9
Частота кадров : 23,976 кадра/сек
Цветовое пространство : YUV
Субдискретизация насыщенности : 4:2:0
Битовая глубина : 8 бит
Тип развёртки : Прогрессивная
Бит/(Пиксели*Кадры) : 0.716
Размер потока : 29,9 Гбайт (92%)
Основные цвета : BT.709
Характеристики трансфера : BT.709
Коэффициенты матрицы : BT.709

Аудио #1
Идентификатор : 4352 (0x1100)
Идентификатор меню : 1 (0x1)
Формат : AC-3
Формат/Информация : Audio Coding 3
Расширение режима : CM (complete main)
Параметр Endianness формата : Big
Идентификатор кодека : 129
Продолжительность : 2 ч. 0 м.
Вид битрейта : Постоянный
Битрейт : 448 Кбит/сек
Каналы : 6 каналов
Расположение каналов : Front: L C R, Side: L R, LFE
Частота : 48,0 КГц
Битовая глубина : 16 бит
Метод сжатия : С потерями
Размер потока : 385 Мбайт (1%)
Язык : Russian

Аудио #2
Идентификатор : 4353 (0x1101)
Идентификатор меню : 1 (0x1)
Формат : AC-3
Формат/Информация : Audio Coding 3
Расширение режима : CM (complete main)
Параметр Endianness формата : Big
Идентификатор кодека : 129
Продолжительность : 2 ч. 0 м.
Вид битрейта : Постоянный
Битрейт : 384 Кбит/сек
Каналы : 6 каналов
Расположение каналов : Front: L C R, Side: L R, LFE
Частота : 48,0 КГц
Битовая глубина : 16 бит
Метод сжатия : С потерями
Размер потока : 330 Мбайт (1%)
Язык : Russian

Аудио #3
Идентификатор : 4354 (0x1102)
Идентификатор меню : 1 (0x1)
Формат : TrueHD / AC-3
Расширение режима : CM (complete main)
Параметр Endianness формата : Big
Режим смешивания : Stream extension
Идентификатор кодека : 131
Продолжительность : 2 ч. 0 м.
Вид битрейта : Переменный / Постоянный
Битрейт : 640 Кбит/сек
Максимальный битрейт : 2574 Кбит/сек
Каналы : 6 каналов
Расположение каналов : Front: L C R, Side: L R, LFE
Частота : 48,0 КГц
Битовая глубина : 16 бит
Размер потока : 550 Мбайт (2%)
Язык : English

Текст #1
Идентификатор : 4608 (0x1200)
Идентификатор меню : 1 (0x1)
Формат : PGS
Идентификатор кодека : 144
Язык : Russian

Текст #2
Идентификатор : 4609 (0x1201)
Идентификатор меню : 1 (0x1)
Формат : PGS
Идентификатор кодека : 144
Язык : Russian

Текст #3
Идентификатор : 4610 (0x1202)
Идентификатор меню : 1 (0x1)
Формат : PGS
Идентификатор кодека : 144
Язык : English



Скачать Вокруг Света за 80 Дней через торрент http://6.firepic.org/6/images/2014-02/07/37qfhueo7dmk.png Скачать, смотреть онлайн Вокруг Света за 80 Дней бесплантно в хорошем качестве Описание: Эксцентричный лондонский изобретатель Филеас Фогг раскрыл тайны полетов, электричества и многие другие, но общество не принимает ... 10 10 8
Info! Золотая раздача, скачанное не засчитывается.
Торрент: Зарегистрирован [2014-02-07 14:14] · скачан: 11 раз
Статус: √ проверено
Размер: 32.42 GB
Как cкачать? Как скачать Вокруг Света за 80 Дней через торрент | UTorrent

% Раздел Тема Автор DL S | L
Фильмы [HD 720p, 1080p] (Хороший звук DUB, MVO) [ 6 GB ] Вокруг Света за 80 Дней / Around the World in 80 Days | Дубляж+AVO | 1080p, HEVC (10bit Мичман37 Скачать
1 | 0
Фильмы с авторской озвучкой [ 2.07 GB ] Вокруг Света за 80 Дней / Around the World in 80 Days | AVO | BDRip killermax2013 Скачать
2 | 0
Фильмы [HD 720p, 1080p] (Хороший звук DUB, MVO) [ 15.3 GB ] Вокруг света за 80 дней / Around the World in 80 Days | DUB | 1080p msltel Скачать
1 | 0
Фильмы [HD 720p, 1080p] (Хороший звук DUB, MVO) [ 4.88 GB ] Вокруг света за 80 дней / Around the World in 80 Days | DUB | 720p msltel Скачать
1 | 0
Фильмы 2001-2005 [ 2.19 GB ] Вокруг света за 80 дней / Around the World in 80 Days | Дубляж | BDRip, Дубляж _KaisiK_ Скачать
1 | 0
Фильмы 2001-2005 [ 2.05 GB ] Вокруг света за 80 дней / Around the World in 80 Days | Дубляж | HDRip, Дубляж TekkenxD Скачать
1 | 0
Фильмы 2001-2005 [ 1.45 GB ] Вокруг света за 80 дней / Around the World in 80 Days | DUB | HDRip, DUB, лицензия ALIK1989 Скачать
1 | 0

28-11-2019 20:33  


Отключить вcю реклaмy на сайте, в т.ч. и в плеере онлайн просмотра!

    Дорогой пользователь! Огромная просьба, поблагодарите релизера, оцените раздачу и оставьте свои комментарий, если Вы скачали Вокруг Света за 80 Дней через торрент бесплатно!!
    Комментировать посты могут только пользователи прошедшие не сложную регистрацию
    Показать сообщения:    


    Вокруг Света за 80 Дней через торрент
    Скачать бесплатно Вокруг Света за 80 Дней
    Вокруг Света за 80 Дней скачать торрент
    Вокруг Света за 80 Дней смотреть онлайн
    Cкачать фильм Вокруг Света за 80 Дней бесплатно
    Вокруг Света за 80 Дней скачать торрент в хорошем качестве
    Вокруг Света за 80 Дней смотреть онлайн бесплатно в хорошем качестве
    Вы не можете начинать темы
    Вы не можете отвечать на сообщения
    Вы не можете редактировать свои сообщения
    Вы не можете удалять свои сообщения
    Вы не можете голосовать в опросах
    Вы не можете прикреплять файлы к сообщениям
    Вы можете скачивать файлы
    Вокруг Света за 80 Дней / Around the World in 80 Days [2004 г., Боевик, комедия, приключения, семейный, вестерн, BD-Remux, Дубляж] смотреть онлайн, скачать торрент picoco.icu