Доктор Стрэндж

Лицензия

Добыча

MVO

Дом дракона

1 сезон

Тор

Лицензия

Мэверик

Лицензия

Там, где раки поют

MVO

Властелин колец

1 сезон

Ultimate

pack

Рекомендуем

30

Repack

ВАЖНО

ВАЖНО

Ghostwire

RePack

jed

RePack

nioh2

RePack

RDR2

RePack

NEED FOR SPEED™ PAYBACK

RePack

скачать торрент

Кинопоиск HD

Острые козырьки 6 сезон

6 сезон

FAR CRY 6

RePack

скачать торрент

Лицензия

скачать торрент

MVO

1

1 сезон

скачать торрент

1 сезон

скачать торрент

Лицензия

  

Риск без контракта (Игорь Мугуров) [1992 г., Боевик, приключения, DVDRip]

Риск без контракта через торрент piratbit.org

Качают: 1 [ 0 KB/s ]
Размер: 1.09 GB | Добавлен: 8 лет 7 мес. назад | Торрент скачан:39 раз
Смотреть онлайн Риск без контракта | Скачать   

07-02-2014 18:35 Риск без контракта Скачать торрент  

Риск без контракта
Год выпуска: 1992
Страна: Россия Паритет, Роскомкино
Жанр: Боевик, приключения
Продолжительность: 01:17:33

Режиссер: Игорь Мугуров
Сценарий: Василий Шлыков



В ролях: Василий Шлыков, Татьяна Скороходова, Лидия Вележева, Валерий Воронин, Валерий Порошин, Юрий Новохижин, Евгений Дворжецкий

Описание: Сергей Громов — профессиональный каскадер. Время, свободное от съемок, Сергей тратит на то, чтобы подзаработать. В основном он занимается тем, что перегоняет машины из города в город для продажи. А богатые бизнесмены ему неплохо платят. Сергею подворачивается очередная «халтура» — надо доставить дорогую иномарку из Владивостока в Москву. На месте машину ждет покупатель, который заплатит приличную сумму. В надежде на легкий заработок Сергей мгновенно соглашается. И только в дороге он случайно обнаруживает, что под обшивкой автомобиля спрятана большая партия наркотиков...

Качество: DVDRip
Формат: AVI
Видео кодек: XviD
Аудио кодек: AC3
Видео: Xvid 672x512, 25.00fps, 1 749 Kbps
Аудио: Dolby AC3, 48000Hz, stereo, 256kbps
Релиз от: 0ptimus





General
Complete name : D:�7 02 1013Risk.bez.kontrakta.1992.XviD.DVDRip.Kinozal.TV.avi
Format : AVI
Format/Info : Audio Video Interleave
File size : 1.09 GiB
Duration : 1h 17mn
Overall bit rate : 2 015 Kbps
Writing application : VirtualDubMod 1.5.10.2 (build 2540/release)
Writing library : VirtualDubMod build 2540/release

Video
ID : 0
Format : MPEG-4 Visual
Format profile : Advanced Simple@L5
Format settings, BVOP : 1
Format settings, QPel : No
Format settings, GMC : No warppoints
Format settings, Matrix : Default (MPEG)
Codec ID : XVID
Codec ID/Hint : XviD
Duration : 1h 17mn
Bit rate : 1 749 Kbps
Width : 672 pixels
Height : 512 pixels
Display aspect ratio : 4:3
Frame rate : 25.000 fps
Color space : YUV
Chroma subsampling : 4:2:0
Bit depth : 8 bits
Scan type : Progressive
Compression mode : Lossy
Bits/(Pixel*Frame) : 0.203
Stream size : 970 MiB (87%)
Writing library : XviD 1.2.1 (UTC 2008-12-04)

Audio
ID : 1
Format : AC-3
Format/Info : Audio Coding 3
Mode extension : CM (complete main)
Codec ID : 2000
Duration : 1h 17mn
Bit rate mode : Constant
Bit rate : 256 Kbps
Channel(s) : 2 channels
Channel positions : Front: L R
Sampling rate : 48.0 KHz
Bit depth : 16 bits
Compression mode : Lossy
Stream size : 142 MiB (13%)
Alignment : Split accross interleaves
Interleave, duration : 40 ms (1.00 video frame)
Interleave, preload duration : 500 ms




Скачать Риск без контракта через торрент https://pic1.kartinco.top/images/61/pxrsp.jpg Скачать, смотреть онлайн Риск без контракта бесплантно в хорошем качестве Описание: Сергей Громов — каскадер. Время, свободное от съемок, Сергей тратит на то, чтобы подзаработать. В основном он ... 9.7 10 7
Info! Золотая раздача, скачанное не засчитывается.
Торрент: Зарегистрирован [2014-02-07 18:35] · скачан: 39 раз
Статус: √ проверено
Размер: 1.09 GB
Как cкачать? Как скачать Риск без контракта через торрент | UTorrent

28-11-2019 20:33  

Отключить вcю реклaмy на сайте

    Дорогой пользователь! Огромная просьба, поблагодарите релизера, оцените раздачу и оставьте свои комментарий, если Вы скачали Риск без контракта через торрент бесплатно!!
    Комментировать посты могут только пользователи прошедшие не сложную регистрацию
    Показать сообщения:    


    Риск без контракта через торрент
    Скачать бесплатно Риск без контракта
    Риск без контракта скачать торрент
    Риск без контракта смотреть онлайн
    Cкачать фильм Риск без контракта бесплатно
    Риск без контракта скачать торрент в хорошем качестве
    Риск без контракта смотреть онлайн бесплатно в хорошем качестве
    Вы не можете начинать темы
    Вы не можете отвечать на сообщения
    Вы не можете редактировать свои сообщения
    Вы не можете удалять свои сообщения
    Вы не можете голосовать в опросах
    Вы не можете прикреплять файлы к сообщениям
    Вы можете скачивать файлы