Достать ножи: Стеклянная луковица

MVO

Добыча

Дубляж

Уэнсдэй

1 сезон

Тор

Дубляж

13 клиническая

1 сезон

Жестокая ночь

MVO

Одни из нас

1 сезон

Deluxe

pack

Рекомендуем

30

Пиратка

ВАЖНО

ВАЖНО

Ghostwire

Пиратка

jed

RePack

nioh2

RePack

RDR2

RePack

NEED FOR SPEED™ PAYBACK

RePack

скачать торрент

Кинопоиск HD

Острые козырьки 6 сезон

6 сезон

FAR CRY 6

RePack

скачать торрент

Лицензия

скачать торрент

MVO

1

1 сезон

скачать торрент

1 сезон

скачать торрент

Лицензия

  

Клетка для пташек / The Birdcage (Майк Николс) [1996 г., комедия, BD-Remux, Дубляж, DVO, AVO, Original, SUB]

Клетка для пташек через торрент piratbit.org

Размер: 34.06 GB | Добавлен: 8 лет 11 мес. назад | Торрент скачан:1 раз
Смотреть онлайн | Скачать | Поддержите нас   

09-02-2014 15:36 Клетка для пташек Скачать торрент  

Клетка для пташек / The Birdcage

Год выпуска: 1996
Страна: США
Жанр: комедия
Продолжительность: 01:59:13
Перевод: Дубляж + Двухголосый + Авторский
Субтитры: English, Russian

Режиссер: Майк Николс
Продюссер: Майк Николс, Марчелло Данон, Мишель Императо
Сценарий: Элейн Мей, Жан Пуарэ, Франсис Вебер
Бюджет: $124 060 553
Премьера в мире: 8 марта 1996

IMDB 6.80 (47 874)


В ролях: Робин Уильямс, Натан Лэйн, Джин Хэкмен, Дайэнн Уист, Дэн Футтерман, Калиста Флокхарт, Хэнк Азария, Кристин Барански, Том МакГоуэн, Грант Хеслов

Описание: Арман и Альберт живут жизнью, с их точки зрения, идеальной. Они с успехом содержат кичевый ночной клуб в самом центре Майами. Но их уютное спокойствие внезапно сотрясает возвращение сына Армана, который собирается жениться на дочери ультраконсервативного сенатора Кили.Мало того — сенатор с женой — уже в пути, чтобы поспеть к ужину, за которым и должно состояться их знакомство с мистером и миссис Идеальная Семья. Смогут ли Арман и Альберт обвести их вокруг пальца? Миленькое представление ожидает застойного консерватора. Чтобы замаскироваться, ему придется примерить шифоновый наряд!

Качество: BD-Remux
Формат: BDAV
Видео кодек: AVC
Аудио кодек: AC-3 / DTS-HD MA
Видео: MPEG-4 AVC Video 29920 kbps, 1 920x1080p / 23,976 fps / 16:9 / High Profile 4.1
Аудио#1: Russian AC-3, 2.0 48 kHz 192 kbps – дубляж (Варус Видео);
Аудио#2: Russian AC-3, 2.0 48 kHz 192 kbps – закадровый (двухголосый, Союз Видео);
Аудио#3: Russian AC-3, 5.1 48 kHz 384 kbps – закадровый (двухголосый, НТВ+);
Аудио#4: Russian DTS-HD MA, 5.1 48 kHz 3870 kbps 24-bit (DTS Core: 5.1 / 48 kHz / 1509 kbps / 24-bit) – закадровый (авторский одноголосый, Карцев);
Аудио#5 English DTS-HD MA 5.1 48 kHz 3940 kbps 24-bit (DTS Core: 5.1 / 48 kHz / 1509 kbps / 24-bit).
General
ID : 1 (0x1)
Complete name : /etc/seedbox/home/kep/data/The.Birdcage.1996.BDRemux.HDTracker/BDMV/STREAM/00000.m2ts
Format : BDAV
Format/Info : Blu-ray Video
File size : 34.1 GiB
Duration : 1h 59mn
Overall bit rate mode : Variable
Overall bit rate : 40.9 Mbps
Maximum Overall bit rate : 35.5 Mbps

Video
ID : 4113 (0x1011)
Menu ID : 1 (0x1)
Format : AVC
Format/Info : Advanced Video Codec
Format profile : High@L4.1
Format settings, CABAC : Yes
Format settings, ReFrames : 2 frames
Format settings, GOP : M=1, N=10
Codec ID : 27
Duration : 1h 59mn
Bit rate mode : Variable
Width : 1 920 pixels
Height : 1 080 pixels
Display aspect ratio : 16:9
Frame rate : 23.976 fps
Color space : YUV
Chroma subsampling : 4:2:0
Bit depth : 8 bits
Scan type : Progressive

Audio #1
ID : 4352 (0x1100)
Menu ID : 1 (0x1)
Format : AC-3
Format/Info : Audio Coding 3
Mode extension : CM (complete main)
Format settings, Endianness : Big
Codec ID : 129
Duration : 1h 59mn
Bit rate mode : Constant
Bit rate : 192 Kbps
Channel count : 2 channels
Channel positions : Front: L R
Sampling rate : 48.0 KHz
Bit depth : 16 bits
Compression mode : Lossy
Stream size : 164 MiB (0%)
Language : Russian

Audio #2
ID : 4353 (0x1101)
Menu ID : 1 (0x1)
Format : AC-3
Format/Info : Audio Coding 3
Mode extension : CM (complete main)
Format settings, Endianness : Big
Codec ID : 129
Duration : 1h 59mn
Bit rate mode : Constant
Bit rate : 192 Kbps
Channel count : 2 channels
Channel positions : Front: L R
Sampling rate : 48.0 KHz
Bit depth : 16 bits
Compression mode : Lossy
Stream size : 164 MiB (0%)
Language : Russian

Audio #3
ID : 4354 (0x1102)
Menu ID : 1 (0x1)
Format : AC-3
Format/Info : Audio Coding 3
Mode extension : CM (complete main)
Format settings, Endianness : Big
Codec ID : 129
Duration : 1h 59mn
Bit rate mode : Constant
Bit rate : 384 Kbps
Channel count : 6 channels
Channel positions : Front: L C R, Side: L R, LFE
Sampling rate : 48.0 KHz
Bit depth : 16 bits
Compression mode : Lossy
Stream size : 327 MiB (1%)
Language : Russian

Audio #4
ID : 4355 (0x1103)
Menu ID : 1 (0x1)
Format : DTS
Format/Info : Digital Theater Systems
Format profile : MA / Core
Mode : 16
Format settings, Endianness : Big
Muxing mode : Stream extension
Codec ID : 134
Duration : 1h 59mn
Bit rate mode : Variable
Bit rate : Unknown / 1 509 Kbps
Channel count : 6 channels
Channel positions : Front: L C R, Side: L R, LFE
Sampling rate : 48.0 KHz
Bit depth : 24 bits
Compression mode : Lossless / Lossy
Language : Russian

Audio #5
ID : 4356 (0x1104)
Menu ID : 1 (0x1)
Format : DTS
Format/Info : Digital Theater Systems
Format profile : MA / Core
Mode : 16
Format settings, Endianness : Big
Muxing mode : Stream extension
Codec ID : 134
Duration : 1h 59mn
Bit rate mode : Variable
Bit rate : Unknown / 1 509 Kbps
Channel count : 6 channels
Channel positions : Front: L C R, Side: L R, LFE
Sampling rate : 48.0 KHz
Bit depth : 24 bits
Compression mode : Lossless / Lossy
Language : English

Text #1
ID : 4608 (0x1200)
Menu ID : 1 (0x1)
Format : PGS
Codec ID : 144
Language : Russian

Text #2
ID : 4609 (0x1201)
Menu ID : 1 (0x1)
Format : PGS
Codec ID : 144
Language : English



Скачать Клетка для пташек через торрент http://i1-imageban-ru.translate.goog/out/2014/02/09/6932493515f0e144fdabaedf6ae0b303.png Скачать, смотреть онлайн Клетка для пташек бесплантно в хорошем качестве Описание: Арман и Альберт живут жизнью, с их точки зрения, идеальной. Они с успехом содержат кичевый ночной клуб в самом центре Майами. Но ... 10 10 4
Info! Золотая раздача, скачанное не засчитывается.
Торрент: Зарегистрирован [2014-02-09 15:36] · скачан: 1 раз
Статус: √ проверено
Размер: 34.06 GB
Как cкачать? Как скачать Клетка для пташек через торрент | UTorrent

% Раздел Тема Автор DL S | L
Фильмы до 2000 г. [ 1.05 GB ] Клетка для пташек / The Birdcage | DUB | BDRip-AVC killermax2013 Скачать
1 | 0
Фильмы до 2000 г. [ 2.32 GB ] Клетка для пташек / The Birdcage | DUB + Original | HDRip-AVC -=Cherry=- Скачать
1 | 0

28-11-2019 20:33  


Отключить вcю реклaмy на сайте, в т.ч. и в плеере онлайн просмотра!

    Дорогой пользователь! Огромная просьба, поблагодарите релизера, оцените раздачу и оставьте свои комментарий, если Вы скачали Клетка для пташек через торрент бесплатно!!
    Комментировать посты могут только пользователи прошедшие не сложную регистрацию
    Показать сообщения:    


    Клетка для пташек через торрент
    Скачать бесплатно Клетка для пташек
    Клетка для пташек скачать торрент
    Клетка для пташек смотреть онлайн
    Cкачать фильм Клетка для пташек бесплатно
    Клетка для пташек скачать торрент в хорошем качестве
    Клетка для пташек смотреть онлайн бесплатно в хорошем качестве
    Вы не можете начинать темы
    Вы не можете отвечать на сообщения
    Вы не можете редактировать свои сообщения
    Вы не можете удалять свои сообщения
    Вы не можете голосовать в опросах
    Вы не можете прикреплять файлы к сообщениям
    Вы можете скачивать файлы
    Клетка для пташек / The Birdcage [1996 г., комедия, BD-Remux, Дубляж, DVO, AVO, Original, SUB] смотреть онлайн, скачать торрент picoco.icu