Достать ножи: Стеклянная луковица

MVO

Добыча

Дубляж

Уэнсдэй

1 сезон

Тор

Дубляж

13 клиническая

1 сезон

Жестокая ночь

MVO

Одни из нас

1 сезон

Deluxe

pack

Рекомендуем

30

Пиратка

ВАЖНО

ВАЖНО

Ghostwire

Пиратка

jed

RePack

nioh2

RePack

RDR2

RePack

NEED FOR SPEED™ PAYBACK

RePack

скачать торрент

Кинопоиск HD

Острые козырьки 6 сезон

6 сезон

FAR CRY 6

RePack

скачать торрент

Лицензия

скачать торрент

MVO

1

1 сезон

скачать торрент

1 сезон

скачать торрент

Лицензия

  

Спасти рядового Райана / Saving Private Ryan (Стивен Спилберг) [1998 г., боевик, драма, военный, BD-Remux, Дубляж]

Спасти рядового Райана через торрент piratbit.org

Качают: 1 [ 0 KB/s ]
Размер: 52.85 GB | Добавлен: 8 лет 11 мес. назад | Торрент скачан:1 раз
Смотреть онлайн | Скачать | Поддержите нас   

10-02-2014 13:36 Спасти рядового Райана Скачать торрент  

Спасти рядового Райана / Saving Private Ryan
Год выпуска: 1998
Страна: США
Жанр: боевик, драма, военный,
Продолжительность: 02:48:21
Перевод: Дубляж
Субтитры: Русские, Английские

Режиссер: Стивен Спилберг
Продюссер: Йен Брайс, Марк Гордон, Гари Левинсон
Сценарий: Роберт Родат

Бюджет: $70 000 000
Премьера в мире: 24 июля 1998



В ролях: Том Хэнкс, Том Сайзмор, Эдвард Бернс, Барри Пеппер, Адам Голдберг, Вин Дизель, Джованни Рибизи, Джереми Дэвис, Мэтт Деймон, Тед Дэнсон, Пол Джиаматти, Дэннис Фарина,

Описание: Капитан Джон Миллер получает тяжелое задание. Вместе с отрядом из восьми человек Миллер должен отправиться в тыл врага на поиски рядового Джеймса Райана, три родных брата которого почти одновременно погибли на полях сражений.

Командование приняло решение демобилизовать Райана и отправить его на родину к безутешной матери. Но для того, чтобы найти и спасти солдата, крошечному отряду придется пройти через все круги ада…

Качество: BD-Remux
Формат: m2ts
Видео кодек: H.264
Аудио кодек: AC3, DTS, DTS-HD
Видео: 1920x1080 at 23.976 fps, MPEG-4 AVC, ~27.5 Mbps avg
Аудио#1: Russian: 48 kHz, AC3, 3/2 (L,C,R,l,r) + LFE ch, ~448.00 kbps avg |Дубляж|
Аудио#2: Russian: 48 kHz/24-bit, DTS-HD MA 5.1, ~4232.00 kbps avg |Многоголосый закадровый, Карусель|
Аудио#3: Russian: 48 kHz, DTS, 3/2 (L,C,R,l,r) + LFE ch, ~768.00 kbps avg |Многоголосый закадровый, Superbit|
Аудио#4: Russian: 48 kHz, AC3, 3/2 (L,C,R,l,r) + LFE ch, ~448.00 kbps avg |Многоголосый закадровый, Позитив-Мультимедиа|
Аудио#5: Ukrainian: 48 kHz, AC3, 2/0 (L,R) ch, ~256.00 kbps avg |Многоголосый закадровый, ICTV|
Аудио#6: Russian: 48 kHz/24-bit, DTS-HD MA 5.1, ~4239.00 kbps avg |Одноголосый закадровый, Ю.Живов|
Аудио#7: English: 48 kHz/24-bit, DTS-HD MA 5.1, ~4195.00 kbps avg
[/url]

[/url]

[/url]

[/url]

[/url]

[/url]

[/url]

[/url]

[/url]





General
ID : 1 (0x1)
Complete name : D:[Фильмы]Спасти Рядового Райана ~ Saving Private Ryan (1998) BD-Remux.m2ts
Format : BDAV
Format/Info : Blu-ray Video
File size : 52.8 GiB
Duration : 2h 48mn
Overall bit rate mode : Variable
Overall bit rate : 44.8 Mbps
Maximum Overall bit rate : 35.5 Mbps

Video
ID : 4113 (0x1011)
Menu ID : 1 (0x1)
Format : AVC
Format/Info : Advanced Video Codec
Format profile : High@L4.1
Format settings, CABAC : Yes
Format settings, ReFrames : 4 frames
Codec ID : 27
Duration : 2h 48mn
Bit rate mode : Variable
Maximum bit rate : 37.0 Mbps
Width : 1 920 pixels
Height : 1 080 pixels
Display aspect ratio : 16:9
Frame rate : 23.976 fps
Color space : YUV
Chroma subsampling : 4:2:0
Bit depth : 8 bits
Scan type : Progressive
Color primaries : BT.709
Transfer characteristics : BT.709
Matrix coefficients : BT.709

Audio #1
ID : 4352 (0x1100)
Menu ID : 1 (0x1)
Format : AC-3
Format/Info : Audio Coding 3
Mode extension : CM (complete main)
Format settings, Endianness : Big
Codec ID : 129
Duration : 2h 48mn
Bit rate mode : Constant
Bit rate : 448 Kbps
Channel(s) : 6 channels
Channel positions : Front: L C R, Side: L R, LFE
Sampling rate : 48.0 KHz
Bit depth : 16 bits
Compression mode : Lossy
Stream size : 541 MiB (1%)
Language : Russian

Audio #2
ID : 4353 (0x1101)
Menu ID : 1 (0x1)
Format : DTS
Format/Info : Digital Theater Systems
Format profile : MA / Core
Mode : 16
Format settings, Endianness : Big
Muxing mode : Stream extension
Codec ID : 134
Duration : 2h 48mn
Bit rate mode : Variable
Bit rate : Unknown / 1 509 Kbps
Channel(s) : 6 channels
Channel positions : Front: L C R, Side: L R, LFE
Sampling rate : 48.0 KHz
Bit depth : 24 bits
Compression mode : Lossless / Lossy
Language : Russian

Audio #3
ID : 4354 (0x1102)
Menu ID : 1 (0x1)
Format : DTS
Format/Info : Digital Theater Systems
Mode : 16
Format settings, Endianness : Big
Codec ID : 130
Duration : 2h 48mn
Bit rate mode : Constant
Bit rate : 755 Kbps
Channel(s) : 6 channels
Channel positions : Front: L C R, Side: L R, LFE
Sampling rate : 48.0 KHz
Bit depth : 24 bits
Compression mode : Lossy
Stream size : 909 MiB (2%)
Language : Russian

Audio #4
ID : 4355 (0x1103)
Menu ID : 1 (0x1)
Format : AC-3
Format/Info : Audio Coding 3
Mode extension : CM (complete main)
Format settings, Endianness : Big
Codec ID : 129
Duration : 2h 48mn
Bit rate mode : Constant
Bit rate : 448 Kbps
Channel(s) : 6 channels
Channel positions : Front: L C R, Side: L R, LFE
Sampling rate : 48.0 KHz
Bit depth : 16 bits
Compression mode : Lossy
Stream size : 539 MiB (1%)
Language : Russian

Audio #5
ID : 4356 (0x1104)
Menu ID : 1 (0x1)
Format : AC-3
Format/Info : Audio Coding 3
Mode extension : CM (complete main)
Format settings, Endianness : Big
Codec ID : 129
Duration : 2h 48mn
Bit rate mode : Constant
Bit rate : 256 Kbps
Channel(s) : 2 channels
Channel positions : Front: L R
Sampling rate : 48.0 KHz
Bit depth : 16 bits
Compression mode : Lossy
Stream size : 308 MiB (1%)
Language : Ukrainian

Audio #6
ID : 4357 (0x1105)
Menu ID : 1 (0x1)
Format : DTS
Format/Info : Digital Theater Systems
Format profile : MA / Core
Mode : 16
Format settings, Endianness : Big
Muxing mode : Stream extension
Codec ID : 134
Duration : 2h 48mn
Bit rate mode : Variable
Bit rate : Unknown / 1 509 Kbps
Channel(s) : 6 channels
Channel positions : Front: L C R, Side: L R, LFE
Sampling rate : 48.0 KHz
Bit depth : 24 bits
Compression mode : Lossless / Lossy
Language : Russian

Audio #7
ID : 4358 (0x1106)
Menu ID : 1 (0x1)
Format : DTS
Format/Info : Digital Theater Systems
Format profile : MA / Core
Mode : 16
Format settings, Endianness : Big
Muxing mode : Stream extension
Codec ID : 134
Duration : 2h 48mn
Bit rate mode : Variable
Bit rate : Unknown / 1 509 Kbps
Channel(s) : 6 channels
Channel positions : Front: L C R, Side: L R, LFE
Sampling rate : 48.0 KHz
Bit depth : 24 bits
Compression mode : Lossless / Lossy
Language : English

Text #1
ID : 4608 (0x1200)
Menu ID : 1 (0x1)
Format : PGS
Codec ID : 144
Language : Russian

Text #2
ID : 4609 (0x1201)
Menu ID : 1 (0x1)
Format : PGS
Codec ID : 144
Language : English

Text #3
ID : 4610 (0x1202)
Menu ID : 1 (0x1)
Format : PGS
Codec ID : 144
Language : English




Скачать Спасти рядового Райана через торрент http://i46.fastpic.ru/big/2013/0611/b2/230a989f89f183de419715a179c6a1b2.jpg Скачать, смотреть онлайн Спасти рядового Райана бесплантно в хорошем качестве Описание: Капитан Джон Миллер получает тяжелое задание. Вместе с отрядом из восьми человек Миллер должен отправиться в тыл врага на поиски ... 9.2 10 11
Info! Золотая раздача, скачанное не засчитывается.
Торрент: Зарегистрирован [2014-02-10 13:36] · скачан: 1 раз
Статус: √ проверено
Размер: 52.85 GB
Как cкачать? Как скачать Спасти рядового Райана через торрент | UTorrent

% Раздел Тема Автор DL S | L
Фильмы [HD 720p, 1080p] (Хороший звук DUB, MVO) [ 6.79 GB ] Спасти рядового Райана / Saving Private Ryan | DUB | 1080p killermax2013 Скачать
1 | 0
Фильмы (HD 720p, 1080p) (48-60 fps) [ 45.04 GB ] Спасти рядового Райана / Saving Private Ryan | Дубляж | 1080p, [Дубляж flatro1 Скачать
1 | 1
Ultra HD (UHD: 2K, 4K, 8K) [ 69.31 GB ] Спасти рядового Райана / Saving Private Ryan | DUB | 2160p sheker187 Скачать
1 | 0
Ultra HD (UHD: 2K, 4K, 8K) [ 45.69 GB ] Спасти рядового Райана / Saving Private Ryan | DUB + 3xMVO + 3xAVO + 2xMVO | 2160p sheker187 Скачать
1 | 1
Ultra HD (UHD: 2K, 4K, 8K) [ 117.14 GB ] Спасти рядового Райана / Saving Private Ryan | DUB + 4xMVO + 4xAVO + 2xMVO | 2160p sheker187 Скачать
1 | 0
Ultra HD (UHD: 2K, 4K, 8K) [ 104.15 GB ] Спасти рядового Райана / Saving Private Ryan | DUB+5xMVO+2xMVO | 2160p bober100 Скачать
1 | 0
Фильмы [HD 720p, 1080p] (Хороший звук DUB, MVO) [ 28.18 GB ] Спасти рядового Райана / Saving Private Ryan | Дубляж | 1080p, Дубляж Артронах Скачать
1 | 0

28-11-2019 20:33  


Отключить вcю реклaмy на сайте, в т.ч. и в плеере онлайн просмотра!

28-09-2014 18:31 Спасти рядового Райана Скачать торрент  

На раздачу встаньте плс



06-10-2016 12:20 Спасти рядового Райана Скачать торрент  

Скорости пжл



24-08-2017 13:26 Спасти рядового Райана Скачать торрент  

Раздайте,уважаемые!



    Дорогой пользователь! Огромная просьба, поблагодарите релизера, оцените раздачу и оставьте свои комментарий, если Вы скачали Спасти рядового Райана через торрент бесплатно!!
    Комментировать посты могут только пользователи прошедшие не сложную регистрацию
    Показать сообщения:    


    Спасти рядового Райана через торрент
    Скачать бесплатно Спасти рядового Райана
    Спасти рядового Райана скачать торрент
    Спасти рядового Райана смотреть онлайн
    Cкачать фильм Спасти рядового Райана бесплатно
    Спасти рядового Райана скачать торрент в хорошем качестве
    Спасти рядового Райана смотреть онлайн бесплатно в хорошем качестве
    Вы не можете начинать темы
    Вы не можете отвечать на сообщения
    Вы не можете редактировать свои сообщения
    Вы не можете удалять свои сообщения
    Вы не можете голосовать в опросах
    Вы не можете прикреплять файлы к сообщениям
    Вы можете скачивать файлы
    Спасти рядового Райана / Saving Private Ryan [1998 г., боевик, драма, военный, BD-Remux, Дубляж] смотреть онлайн, скачать торрент picoco.icu