Достать ножи: Стеклянная луковица

MVO

Добыча

Дубляж

Уэнсдэй

1 сезон

Тор

Дубляж

13 клиническая

1 сезон

Жестокая ночь

MVO

Одни из нас

1 сезон

Deluxe

pack

Рекомендуем

30

Пиратка

ВАЖНО

ВАЖНО

Ghostwire

Пиратка

jed

RePack

nioh2

RePack

RDR2

RePack

NEED FOR SPEED™ PAYBACK

RePack

скачать торрент

Кинопоиск HD

Острые козырьки 6 сезон

6 сезон

FAR CRY 6

RePack

скачать торрент

Лицензия

скачать торрент

MVO

1

1 сезон

скачать торрент

1 сезон

скачать торрент

Лицензия

  

Люблю тебя, чувак / I Love You, Man (Джон Гамбург) [2009 г., Комедия, Blu-Ray Remux (1080p), Дубляж, DVO, Original]

Люблю тебя, чувак через торрент piratbit.org

Размер: 25.01 GB | Добавлен: 8 лет 11 мес. назад | Торрент скачан:41 раз
Смотреть онлайн | Скачать | Поддержите нас   

10-02-2014 14:48 Люблю тебя, чувак Скачать торрент  

Люблю тебя чувак / I Love You Man

Год выпуска: 2009
Страна: США
Жанр: Комедия
Продолжительность: 01:44:46
Перевод: Дубляж + Профессиональный двухголосый
Субтитры: Русские, украинские, английские

Режиссер: Джон Гамбург
Продюссер: Джеффри Клиффорд, Дональд Де Лайн, Эндрю Хаас
Сценарий: Ларри Левин, Джон Гамбург
Бюджет: $40 000 000
Премьера в мире: 20 марта 2009

IMDB 7.10 (133 737)


В ролях: Пол Радд, Джейсон Сигел, Рашида Джонс, Сара Барнс, Грег Ливайн, Джейми Прессли, Джон Фавро, Джейн Куртин, Дж.К. Симмонс, Энди Сэмберг, Мелисса Рауш

Описание: Успешный риэлтор Питер Клэйвен наконец-то сделал предложение женщине своей мечты и тут же столкнулся с неожиданной проблемой. У него нет лучшего друга, которому можно поручить важную миссию шафера на свадьбе. После череды специфических свиданий Питер наконец-то нашёл подходящего человека, полную себе противоположность, Сиднея. Да вот только благодаря новому другу Питер понял, что жил не правильно и по-настоящему не умел веселиться... и, похоже, передумал жениться.

Награды::
Премия канала «MTV», 2009 год
Номинации (1):
Лучший поцелуй (Томас Леннон, Пол Радд)


Качество: Blu-Ray Remux (1080p)
Формат: MKV
Видео кодек: AVC
Аудио кодек: AC3
Видео: MPEG-4 AVC, 31840 Кбит/с, 1920x1080, 23,976 кадра/сек, (Бит/Пиксели): 0.627
Аудио#1: Russian: AC3, 6 ch, 640 Кбит/с, 48,0 КГц - Дубляж (BD CEE)
Аудио#2: Russian: AC3, 6 ch, 384 Кбит/с, 48,0 КГц - DVO
Аудио#3: Ukrainian: AC3, 6 ch, 448 Кбит/с, 48,0 КГц - Дубляж (Лицензия R5)
Аудио#4: English: AC3, 6 ch, 640 Кбит/с, 48,0 КГц - Original
Аудио#5: English: AC3, 2 ch, 224 Кбит/с, 48,0 КГц - Commentary
General
Unique ID : 216255264979327898307534624292979432326 (0xA2B13FC17249C3BF81D971FAC8815B86)
Complete name : /home/sb753/files/Lyublyu.Tebya.Chuvak.2009.BD-Rtmux 1080p.by grab777.mkv
Format : Matroska
Format version : Version 2
File size : 25.0 GiB
Duration : 1h 44mn
Overall bit rate mode : Variable
Overall bit rate : 34.2 Mbps
Movie name : ????? ????, ?????.2009.BD-Rtmux 1080p.Sborka. grab777
Encoded date : UTC 2014-02-07 04:47:16
Writing application : mkvmerge v5.8.0 ('No Sleep / Pillow') built on Sep 2 2012 15:37:04
Writing library : libebml v1.2.3 + libmatroska v1.3.0

Video
ID : 1
Format : AVC
Format/Info : Advanced Video Codec
Format profile : High@L4.1
Format settings, CABAC : Yes
Format settings, ReFrames : 2 frames
Format settings, GOP : M=1, N=10
Codec ID : V_MPEG4/ISO/AVC
Duration : 1h 44mn
Bit rate mode : Variable
Bit rate : 31.2 Mbps
Width : 1 920 pixels
Height : 1 080 pixels
Display aspect ratio : 16:9
Frame rate : 23.976 fps
Color space : YUV
Chroma subsampling : 4:2:0
Bit depth : 8 bits
Scan type : Progressive
Bits/(Pixel*Frame) : 0.627
Stream size : 22.8 GiB (91%)
Title : -= grab777 =-
Language : Russian
Default : Yes
Forced : No

Audio #1
ID : 2
Format : AC-3
Format/Info : Audio Coding 3
Mode extension : CM (complete main)
Format settings, Endianness : Big
Codec ID : A_AC3
Duration : 1h 44mn
Bit rate mode : Constant
Bit rate : 640 Kbps
Channel(s) : 6 channels
Channel positions : Front: L C R, Side: L R, LFE
Sampling rate : 48.0 KHz
Bit depth : 16 bits
Compression mode : Lossy
Stream size : 480 MiB (2%)
Title : Дубляж (BD CEE)
Language : Russian
Default : Yes
Forced : No

Audio #2
ID : 3
Format : AC-3
Format/Info : Audio Coding 3
Mode extension : CM (complete main)
Format settings, Endianness : Big
Codec ID : A_AC3
Duration : 1h 44mn
Bit rate mode : Constant
Bit rate : 384 Kbps
Channel(s) : 6 channels
Channel positions : Front: L C R, Side: L R, LFE
Sampling rate : 48.0 KHz
Bit depth : 16 bits
Compression mode : Lossy
Stream size : 288 MiB (1%)
Title : DVO
Language : Russian
Default : No
Forced : No

Audio #3
ID : 4
Format : AC-3
Format/Info : Audio Coding 3
Mode extension : CM (complete main)
Format settings, Endianness : Big
Codec ID : A_AC3
Duration : 1h 44mn
Bit rate mode : Constant
Bit rate : 448 Kbps
Channel(s) : 6 channels
Channel positions : Front: L C R, Side: L R, LFE
Sampling rate : 48.0 KHz
Bit depth : 16 bits
Compression mode : Lossy
Stream size : 336 MiB (1%)
Title : Дубляж (???????? R5)
Language : Ukrainian
Default : No
Forced : Yes

Audio #4
ID : 5
Format : AC-3
Format/Info : Audio Coding 3
Mode extension : CM (complete main)
Format settings, Endianness : Big
Codec ID : A_AC3
Duration : 1h 44mn
Bit rate mode : Constant
Bit rate : 640 Kbps
Channel(s) : 6 channels
Channel positions : Front: L C R, Side: L R, LFE
Sampling rate : 48.0 KHz
Bit depth : 16 bits
Compression mode : Lossy
Stream size : 480 MiB (2%)
Title : Original
Language : English
Default : No
Forced : No

Audio #5
ID : 6
Format : AC-3
Format/Info : Audio Coding 3
Format profile : Dolby Digital
Mode extension : CM (complete main)
Format settings, Endianness : Big
Codec ID : A_AC3
Duration : 1h 44mn
Bit rate mode : Constant
Bit rate : 224 Kbps
Channel(s) : 2 channels
Channel positions : Front: L R
Sampling rate : 48.0 KHz
Bit depth : 16 bits
Compression mode : Lossy
Stream size : 168 MiB (1%)
Title : Commentary
Language : English
Default : No
Forced : No

Text #1
ID : 7
Format : UTF-8
Codec ID : S_TEXT/UTF8
Codec ID/Info : UTF-8 Plain Text
Title : [??????? ? ??.]
Language : Russian
Default : Yes
Forced : No

Text #2
ID : 8
Format : UTF-8
Codec ID : S_TEXT/UTF8
Codec ID/Info : UTF-8 Plain Text
Title : [??????]
Language : Russian
Default : No
Forced : No

Text #3
ID : 9
Format : UTF-8
Codec ID : S_TEXT/UTF8
Codec ID/Info : UTF-8 Plain Text
Title : [??????]
Language : Ukrainian
Default : No
Forced : No

Text #4
ID : 10
Format : UTF-8
Codec ID : S_TEXT/UTF8
Codec ID/Info : UTF-8 Plain Text
Title : [??????]
Language : English
Default : No
Forced : No



Скачать Люблю тебя, чувак через торрент http://i4-imageban-ru.translate.goog/out/2014/02/10/393a991dbebf07268c772630cad8bd58.png Скачать, смотреть онлайн Люблю тебя, чувак бесплантно в хорошем качестве Описание: Успешный риэлтор Питер Клэйвен наконец-то сделал предложение женщине своей мечты и тут же столкнулся с неожиданной проблемой. У ... 8.6 10 10
Info! Золотая раздача, скачанное не засчитывается.
Торрент: Зарегистрирован [2014-02-10 14:48] · скачан: 41 раз
Статус: √ проверено
Размер: 25.01 GB
Как cкачать? Как скачать Люблю тебя, чувак через торрент | UTorrent

28-11-2019 20:33  


Отключить вcю реклaмy на сайте, в т.ч. и в плеере онлайн просмотра!

    Дорогой пользователь! Огромная просьба, поблагодарите релизера, оцените раздачу и оставьте свои комментарий, если Вы скачали Люблю тебя, чувак через торрент бесплатно!!
    Комментировать посты могут только пользователи прошедшие не сложную регистрацию
    Показать сообщения:    


    Люблю тебя, чувак через торрент
    Скачать бесплатно Люблю тебя, чувак
    Люблю тебя, чувак скачать торрент
    Люблю тебя, чувак смотреть онлайн
    Cкачать фильм Люблю тебя, чувак бесплатно
    Люблю тебя, чувак скачать торрент в хорошем качестве
    Люблю тебя, чувак смотреть онлайн бесплатно в хорошем качестве
    Вы не можете начинать темы
    Вы не можете отвечать на сообщения
    Вы не можете редактировать свои сообщения
    Вы не можете удалять свои сообщения
    Вы не можете голосовать в опросах
    Вы не можете прикреплять файлы к сообщениям
    Вы можете скачивать файлы
    Люблю тебя, чувак / I Love You, Man [2009 г., Комедия, Blu-Ray Remux , Дубляж, DVO, Original] смотреть онлайн, скачать торрент picoco.icu