1 сезон

3 сезон

iTunes

1

iTunes

MVO

iTunes

13

1 сезон

RePack

30

Deluxe

pack

Лицензия

ВАЖНО

ИГРА 18+

pack

RePack

MK11

RePack

jed

RePack

fifa19

RePack

RDR2

RePack

NEED FOR SPEED™ PAYBACK

4 сезон

9 сезон

Бесстыжие 9 сезон

Все сериалы

все сериалы на PB.wtf

RePack

FAR CRY 5

Anonymous, добрый вечер, мы катастрофически не успеваем собрать деньги на оплату серверов, помогите нам пожалуйста 5,10,15р., для нас важна любая помощь . В качестве благодарности мы отключим Вам всю рекламу на сайте (укажите свой ник в строку Ваше имя)!

×
  
Magnet ссылка

Идальго: Погоня в пустыне / Hidalgo (Джо Джонстон) [2004 г., Боевик, приключения, вестерн, HDRip-AVC, DUB, AVO, SUB] от R.G. PiratFilms piratbit.org

Идальго: Погоня в пустыне через торрент piratbit.org

Размер: 2.17 GB | Добавлен: 7 лет 5 мес. назад | Торрент скачан:240 раз
Скачать  

11-02-2014 08:27 Идальго: Погоня в пустыне Скачать торрент  

Идальго: Погоня в пустыне / Hidalgo

Год выпуска: 2004
Страна: США, Марокко
Жанр: Боевик, приключения, вестерн
Продолжительность: 02:16:24
Перевод: Дубляж + Авторский
Субтитры: Russian (PGS), English (ASS)

Режиссер: Джо Джонстон
Продюссер: Кэйси Сильвер, Патриция Карр, Крис Сальватерра
Сценарий: Джон Фуско
Бюджет: $100 000 000
Премьера в мире: 17 февраля 2004

IMDB 6.60 (57 197)


В ролях: Вигго Мортенсен, Зулейха Робинсон, Омар Шариф, Луиза Ломбард, Адам Алекси-Малл, Саид Тагмауи, Сайлэс Карсон

Описание: В 1890 году богатый шейх впервые пригласил участвовать в соревнованиях иностранца. Им стал американец Фрэнк Хопкинс, лучший ковбой и наездник на всем Диком Западе. Влиятельный шейх поставил сумасшедшие деньги на победу иноземца.Теперь его судьба зависит от противостояния американского выскочки на мустанге по кличке Идальго и лучших арабских жеребцов, управляемых самыми искусными наездниками-бедуинами. И далеко не всех устраивает победа дерзкого янки в традиционном арабском дерби, ведь она может принести одним — славу, а другим — смерть. И для Фрэнка победа становится не только делом чести, но и единственной возможностью выжить в жарких песках бескрайней пустыни...



Качество: HDRip-AVC
Формат: MKV
Видео кодек: AVC
Аудио кодек: AC3
Видео: AVC, 1024x424 (2.40:1), 23.976 fps, 1 339 Kbps (0.129 bit/pixel)
Аудио#1: AC-3, 48.0 KHz, 6 ch, 448 Kbps, CBR (Russian-DUB)
Аудио#2: AC-3, 48.0 KHz, 2 ch, 448 Kbps, CBR (Russian-AVO - Сербин)
Сэмпл / Трейлер
x264 [info]: frame I:1619 Avg QP:16.58 size: 55916 PSNR Mean Y:47.04 U:51.79 V:52.32 Avg:48.13 Global:47.70
x264 [info]: frame P:45345 Avg QP:19.89 size: 14987 PSNR Mean Y:44.47 U:50.37 V:50.68 Avg:45.69 Global:45.12
x264 [info]: frame B:149277 Avg QP:22.54 size: 4280 PSNR Mean Y:43.83 U:50.59 V:50.94 Avg:45.13 Global:44.29
x264 [info]: consecutive B-frames: 1.5% 2.3% 7.1% 43.1% 21.6% 18.2% 2.2% 2.4% 0.6% 1.0%
Общее
Уникальный идентификатор : 179059932662928099937977663513081782955 (0x86B5B0491BD0C0EEAD011E145BFDA2AB)
Полное имя : D:Загрузки из интернетаМои рипыИдальго Погоня в пустынеHidalgo.2004.HDRip-AVC.kep.mkv
Формат : Matroska
Версия формата : Version 4 / Version 2
Размер файла : 2,17 Гбайт
Продолжительность : 2 ч. 16 м.
Общий поток : 2281 Кбит/сек
Дата кодирования : UTC 2014-02-10 19:50:17
Программа кодирования : mkvmerge v6.6.0 ('The Edge Of The In Between') built on Dec 1 2013 17:55:00
Библиотека кодирования : libebml v1.3.0 + libmatroska v1.4.1
Attachment : Yes / Yes / Yes

Видео
Идентификатор : 1
Формат : AVC
Формат/Информация : Advanced Video Codec
Профиль формата : High@L4.1
Параметр CABAC формата : Да
Параметр ReFrames формата : 9 кадров
Идентификатор кодека : V_MPEG4/ISO/AVC
Продолжительность : 2 ч. 16 м.
Битрейт : 1339 Кбит/сек
Ширина : 1024 пикселя
Высота : 424 пикселя
Соотношение сторон : 2,40:1
Режим частоты кадров : Постоянный
Частота кадров : 23,976 кадра/сек
Цветовое пространство : YUV
Субдискретизация насыщенности : 4:2:0
Битовая глубина : 8 бит
Тип развёртки : Прогрессивная
Бит/(Пиксели*Кадры) : 0.129
Размер потока : 1,28 Гбайт (59%)
Заголовок : Rip ot kep
Библиотека кодирования : x264 core 138 r2358 9e941d1
Настройки программы : cabac=1 / ref=9 / deblock=1:-2:-2 / analyse=0x3:0x133 / me=umh / subme=9 / psy=1 / psy_rd=1.00:0.00 / mixed_ref=1 / me_range=24 / chroma_me=1 / trellis=2 / 8x8dct=1 / cqm=0 / deadzone=21,11 / fast_pskip=0 / chroma_qp_offset=-2 / threads=2 / lookahead_threads=1 / sliced_threads=0 / nr=0 / decimate=1 / interlaced=0 / bluray_compat=0 / constrained_intra=0 / bframes=9 / b_pyramid=2 / b_adapt=2 / b_bias=0 / direct=3 / weightb=1 / open_gop=0 / weightp=2 / keyint=240 / keyint_min=23 / scenecut=40 / intra_refresh=0 / rc_lookahead=60 / rc=crf / mbtree=1 / crf=20.0 / qcomp=0.60 / qpmin=10 / qpmax=51 / qpstep=4 / ip_ratio=1.40 / aq=1:1.00
Язык : English
Default : Да
Forced : Нет

Аудио #1
Идентификатор : 2
Формат : AC-3
Формат/Информация : Audio Coding 3
Расширение режима : CM (complete main)
Параметр Endianness формата : Big
Идентификатор кодека : A_AC3
Продолжительность : 2 ч. 16 м.
Вид битрейта : Постоянный
Битрейт : 448 Кбит/сек
Каналы : 6 каналов
Расположение каналов : Front: L C R, Side: L R, LFE
Частота : 48,0 КГц
Битовая глубина : 16 бит
Метод сжатия : С потерями
Размер потока : 437 Мбайт (20%)
Заголовок : DUB
Язык : Russian
Default : Да
Forced : Нет

Аудио #2
Идентификатор : 3
Формат : AC-3
Формат/Информация : Audio Coding 3
Расширение режима : CM (complete main)
Параметр Endianness формата : Big
Идентификатор кодека : A_AC3
Продолжительность : 2 ч. 16 м.
Вид битрейта : Постоянный
Битрейт : 448 Кбит/сек
Каналы : 2 канала
Расположение каналов : Front: L R
Частота : 48,0 КГц
Битовая глубина : 16 бит
Метод сжатия : С потерями
Размер потока : 437 Мбайт (20%)
Заголовок : AVO - Сербин
Язык : Russian
Default : Нет
Forced : Нет

Текст #1
Идентификатор : 4
Формат : PGS
Режим смешивания : zlib
Идентификатор кодека : S_HDMV/PGS
Идентификатор кодека/Информация : The same subtitle format used on BDs/HD-DVDs
Язык : Russian
Default : Да
Forced : Нет

Текст #2
Идентификатор : 5
Формат : PGS
Режим смешивания : zlib
Идентификатор кодека : S_HDMV/PGS
Идентификатор кодека/Информация : The same subtitle format used on BDs/HD-DVDs
Язык : Russian
Default : Нет
Forced : Нет

Текст #3
Идентификатор : 6
Формат : ASS
Идентификатор кодека : S_TEXT/ASS
Идентификатор кодека/Информация : Advanced Sub Station Alpha
Метод сжатия : Без потерь
Заголовок : Non English dialog only
Язык : English
Default : Нет
Forced : Нет
piratbit.org



Скачать Идальго: Погоня в пустыне через торрент http://i3.imageban.ru/out/2014/02/11/059ef0c26d3582d46ce3697221f72394.png Скачать фильм Идальго: Погоня в пустыне через торрент бесплантно в хорошем качестве Описание: В 1890 году богатый шейх впервые пригласил участвовать в соревнованиях иностранца. Им стал американец Фрэнк Хопкинс, лучший ... 9.9 10 12
Info! Золотая раздача, скачанное не засчитывается.
Торрент: Зарегистрирован [2014-02-11 08:27] · скачан: 240 раз
Статус: √ проверено
Размер: 2.17 GB
Как cкачать? Как скачать Идальго: Погоня в пустыне через торрент | UTorrent

28-11-2019 20:33  

Отключить всю рекламу на сайте

11-02-2014 08:46 Идальго: Погоня в пустыне Скачать торрент  

Отличный фильм!piratbit.org



11-02-2014 10:52 Идальго: Погоня в пустыне Скачать торрент  

Sis писал(а):

Отличный фильм!

Поддерживаю yespiratbit.org



09-06-2014 13:53 Идальго: Погоня в пустыне Скачать торрент  

хороший фильм
кстати там Арагорн играетpiratbit.org



03-10-2014 07:44 Идальго: Погоня в пустыне Скачать торрент  

urs писал(а):

хороший фильм
кстати там Арагорн играет

сын Араторна?piratbit.org



02-11-2018 18:39 Идальго: Погоня в пустыне Скачать торрент  

захватывающий фильмец просто...piratbit.org



    Дорогой пользователь! Огромная просьба, поблагодарите релизера, оцените раздачу и оставьте свои комментарий, если Вы скачали Идальго: Погоня в пустыне через торрент бесплатно! Внесите свою лепту в развитие PiratBit!
    Комментировать посты могут только пользователи прошедшие не сложную регистрацию
    Показать сообщения:    

    Идальго: Погоня в пустыне через торрент
    Скачать бесплатно Идальго: Погоня в пустыне
    Идальго: Погоня в пустыне скачать торрент
    Идальго: Погоня в пустыне смотреть онлайн
    Cкачать фильм Идальго: Погоня в пустыне бесплатно
    Идальго: Погоня в пустыне скачать торрент в хорошем качестве
    Идальго: Погоня в пустыне смотреть онлайн бесплатно в хорошем качестве


    Вы не можете начинать темы
    Вы не можете отвечать на сообщения
    Вы не можете редактировать свои сообщения
    Вы не можете удалять свои сообщения
    Вы не можете голосовать в опросах
    Вы не можете прикреплять файлы к сообщениям
    Вы можете скачивать файлы