Достать ножи: Стеклянная луковица

MVO

Добыча

Дубляж

Уэнсдэй

1 сезон

Тор

Дубляж

13 клиническая

1 сезон

Жестокая ночь

MVO

Одни из нас

1 сезон

Deluxe

pack

Рекомендуем

30

Пиратка

ВАЖНО

ВАЖНО

Ghostwire

Пиратка

jed

RePack

nioh2

RePack

RDR2

RePack

NEED FOR SPEED™ PAYBACK

RePack

скачать торрент

Кинопоиск HD

Острые козырьки 6 сезон

6 сезон

FAR CRY 6

RePack

скачать торрент

Лицензия

скачать торрент

MVO

1

1 сезон

скачать торрент

1 сезон

скачать торрент

Лицензия

  

Северная стена / Nordwand (Филипп Штёльцль) [2008 г., драма, мелодрама, приключения, история, спорт, BDRemux] Дубляж

Северная стена через торрент piratbit.org

Размер: 18.81 GB | Добавлен: 8 лет 11 мес. назад | Торрент скачан:40 раз
Смотреть онлайн | Скачать | Поддержите нас   

19-02-2014 12:38 Северная стена Скачать торрент  


Название: Северная стена
Оригинальное название: Nordwand
Год выпуска: 2008
Жанр: Драма, альпинизм, исторический
Выпущено: Dor Film-West Produktionsgesellschaft GmbH, Lunaris Film, MedienKontor Movie GmbH
Продолжительность: 02:06:05
Перевод: Дублированый, любительский одноголосый
Субтитры: Русские, немецкие, английские
Режиссер: Филипп Штёльцль
В ролях: Бенно Фюрманн, Йоханна Вокалек, Флориан Лукас, Георг Фридрих, Саймон Шварц, Ульрих Тукур, Эрвин Штайнхауэр, Бранко Самаровски, Петра Морзе, Ганспетер Мюллер
Описание:
1936 год. Северная стена Айгера - последняя "нерешенная проблема" Альп, за решение которой сам Гитлер лично обещает вручить золотые медали Берлинской олимпиады... Есть три знаменитые классические стены северной ориентации - Гранд Жорас, Матерхорн, Айгер. Первым - в 1931 - пал Матерхорн. В 1935 была пройдена стена Гранд Жораса. Но именно Северную стену Айгера прозвали "Стеной смерти". Именно на неё власти кантона в 1938-м запретили совершать восхождения, а спасатели вопреки всем канонам и уставам заявили в запале, что больше никого не будут вытаскивать с этой стены. Что ж, всему есть предел. И в конце 30-х казалось, что стену не взять никогда. Основанием для подобных размышлений служила хроника предыдущего десятилетия. С 1928 по 1936 на стену - как под поезд - бросаются группы смельчаков. Безуспешно. Июль 1936-го. Два баварца - Андреас Хинтерштойсер и Тони Курц, и два австрийца - Вилли Ангерер и Эдди Райнер объединяют усилия в штурме стены... Этот художественной фильм - редчайшее сочетание захватывающего зрелища, настоящей драмы, и при этом исторической и технической достоверности.

Файл
Качество: Blu-Ray Remux (1080p)
Формат:MKV
Видео кодек: AVC
Аудио кодек: AC3,DTS-HD
Видео: MPEG-4 AVC, 18002 Кбит/с, 1920x1080, 24 кадр/с
Аудио1: Русский (AC3, 2 ch, 192 Кбит/с) - Дублированный - студия SaTI
Аудио2: Русский (AC3, 6 ch, 448 Кбит/с) - Любительский одноголосый закадровый - AlexSer
Аудио3: Немецкий (AC3, 6 ch, 640 Кбит/с)
Аудио4: Немецкий (DTS-HD МА, 6 ch, 2094 Кбит/с)
Сохранены оригинальные чаптеры как на Blu-Ray.
Релиз от: Сборка:
Общее
Уникальный идентификатор : 187990560113600066987931715177748319918 (0x8D6DAA36C99A79ACB7C9EB4A0D534EAE)
Полное имя : D:ЗагрузкиNordwand.2008.BDRemux.(1080p).ExKinoRay.mkv
Формат : Matroska
Версия формата : Version 2
Размер файла : 18,8 Гбайт
Продолжительность : 2 ч. 6 м.
Режим общего битрейта : Переменный
Общий поток : 21,4 Мбит/сек
Название фильма : Северная стена.2008.Сборка: ollan
Дата кодирования : UTC 2014-02-17 12:33:50
Программа кодирования : mkvmerge v5.6.0 ('Kenya Kane') built on May 27 2012 16:44:04
Библиотека кодирования : libebml v1.2.3 + libmatroska v1.3.0

Видео
Идентификатор : 1
Формат : AVC
Формат/Информация : Advanced Video Codec
Профиль формата : High@L4.1
Параметр CABAC формата : Да
Параметр ReFrames формата : 4 кадра
Идентификатор кодека : V_MPEG4/ISO/AVC
Продолжительность : 2 ч. 6 м.
Вид битрейта : Переменный
Максимальный битрейт : 33,0 Мбит/сек
Ширина : 1920 пикселей
Высота : 1080 пикселей
Соотношение сторон : 16:9
Режим частоты кадров : Постоянный
Частота кадров : 24,000 кадра/сек
Цветовое пространство : YUV
Субдискретизация насыщенности : 4:2:0
Битовая глубина : 8 бит
Тип развёртки : Прогрессивная
Default : Да
Forced : Нет
Основные цвета : BT.709
Характеристики трансфера : BT.709
Коэффициенты матрицы : BT.709

Аудио #1
Идентификатор : 2
Формат : AC-3
Формат/Информация : Audio Coding 3
Расширение режима : CM (complete main)
Параметр Endianness формата : Big
Идентификатор кодека : A_AC3
Продолжительность : 2 ч. 6 м.
Вид битрейта : Постоянный
Битрейт : 192 Кбит/сек
Каналы : 2 канала
Расположение каналов : Front: L R
Частота : 48,0 КГц
Битовая глубина : 16 бит
Метод сжатия : С потерями
Размер потока : 173 Мбайт (1%)
Заголовок : Дублированный
Язык : Russian
Default : Да
Forced : Нет

Аудио #2
Идентификатор : 3
Формат : AC-3
Формат/Информация : Audio Coding 3
Расширение режима : CM (complete main)
Параметр Endianness формата : Big
Идентификатор кодека : A_AC3
Продолжительность : 2 ч. 6 м.
Вид битрейта : Постоянный
Битрейт : 448 Кбит/сек
Каналы : 6 каналов
Расположение каналов : Front: L C R, Side: L R, LFE
Частота : 48,0 КГц
Битовая глубина : 16 бит
Метод сжатия : С потерями
Размер потока : 404 Мбайт (2%)
Заголовок : Любительский одноголосый
Язык : Russian
Default : Нет
Forced : Нет

Аудио #3
Идентификатор : 4
Формат : AC-3
Формат/Информация : Audio Coding 3
Расширение режима : CM (complete main)
Параметр Endianness формата : Big
Идентификатор кодека : A_AC3
Продолжительность : 2 ч. 6 м.
Вид битрейта : Постоянный
Битрейт : 640 Кбит/сек
Каналы : 6 каналов
Расположение каналов : Front: L C R, Side: L R, LFE
Частота : 48,0 КГц
Битовая глубина : 16 бит
Метод сжатия : С потерями
Размер потока : 577 Мбайт (3%)
Язык : German
Default : Нет
Forced : Нет

Аудио #4
Идентификатор : 5
Формат : DTS
Формат/Информация : Digital Theater Systems
Профиль формата : MA / Core
Режим : 16
Параметр Endianness формата : Big
Идентификатор кодека : A_DTS
Продолжительность : 2 ч. 6 м.
Вид битрейта : Переменный
Битрейт : Неизвестно / 1509 Кбит/сек
Каналы : 6 каналов
Расположение каналов : Front: L C R, Side: L R, LFE
Частота : 48,0 КГц
Битовая глубина : 16 бит
Метод сжатия : Без потерь / Lossy
Язык : German
Default : Нет
Forced : Нет

Текст #1
Идентификатор : 6
Формат : UTF-8
Идентификатор кодека : S_TEXT/UTF8
Идентификатор кодека/Информация : UTF-8 Plain Text
Язык : Russian
Default : Нет
Forced : Нет

Текст #2
Идентификатор : 7
Формат : UTF-8
Идентификатор кодека : S_TEXT/UTF8
Идентификатор кодека/Информация : UTF-8 Plain Text
Язык : German
Default : Нет
Forced : Нет

Текст #3
Идентификатор : 8
Формат : UTF-8
Идентификатор кодека : S_TEXT/UTF8
Идентификатор кодека/Информация : UTF-8 Plain Text
Язык : English
Default : Нет
Forced : Нет

Меню
00:00:00.000 : en:Chapter 01
00:08:34.083 : en:Chapter 02
00:18:56.458 : en:Chapter 03
00:27:51.958 : en:Chapter 04
00:38:42.166 : en:Chapter 05
00:47:57.416 : en:Chapter 06
00:57:41.416 : en:Chapter 07
01:13:15.875 : en:Chapter 08
01:24:42.500 : en:Chapter 09
01:43:52.958 : en:Chapter 10
01:56:26.583 : en:Chapter 11
01:59:52.333 : en:Chapter 12



Скачать Северная стена через торрент http://i17.fastpic.ru/big/2011/0313/61/40ee5a6971f3b74b62c2f0e9ea2ffa61.gif Скачать, смотреть онлайн Северная стена бесплантно в хорошем качестве Описание: 1936 год. Северная стена Айгера - последняя "нерешенная проблема" Альп, за решение которой сам Гитлер лично обещает вручить ... 8.2 10 5
Info! Золотая раздача, скачанное не засчитывается.
Торрент: Зарегистрирован [2014-02-19 12:38] · скачан: 40 раз
Статус: √ проверено
Размер: 18.81 GB
Как cкачать? Как скачать Северная стена через торрент | UTorrent

28-11-2019 20:33  


Отключить вcю реклaмy на сайте, в т.ч. и в плеере онлайн просмотра!

    Дорогой пользователь! Огромная просьба, поблагодарите релизера, оцените раздачу и оставьте свои комментарий, если Вы скачали Северная стена через торрент бесплатно!!
    Комментировать посты могут только пользователи прошедшие не сложную регистрацию
    Показать сообщения:    


    Северная стена через торрент
    Скачать бесплатно Северная стена
    Северная стена скачать торрент
    Северная стена смотреть онлайн
    Cкачать фильм Северная стена бесплатно
    Северная стена скачать торрент в хорошем качестве
    Северная стена смотреть онлайн бесплатно в хорошем качестве
    Вы не можете начинать темы
    Вы не можете отвечать на сообщения
    Вы не можете редактировать свои сообщения
    Вы не можете удалять свои сообщения
    Вы не можете голосовать в опросах
    Вы не можете прикреплять файлы к сообщениям
    Вы можете скачивать файлы
    Северная стена / Nordwand [2008 г., драма, мелодрама, приключения, история, спорт, BDRemux] Дубляж смотреть онлайн, скачать торрент picoco.icu