Ссылка на приватное зеркало нашего сайта всего за 1$. Внимание количество ограничено!!!

2 сезон

iTunes

iTunes

1

iTunes

iTunes

iTunes

WEBRip

iTunes

30
pack

Новость дня

ВАЖНО

!!Акция!!

Alien_RageХит недели

RePack

Horizon Zero Dawn

ИГРА 18+

pack

RePack

jed

!!Акция!!

Alien_Rage

RePack

fifa19

RePack

Assassins Creed: Odyssey

RePack

NEED FOR SPEED™ PAYBACK

4 сезон

9 сезон

Бесстыжие 9 сезон

Все сериалы

все сериалы на PB.wtf

RePack

FAR CRY 5
  

Штормовое предупреждение / Storm Warning (Джэми Блэнкс / Jamie Blanks) [ 2007 , Австралия , ужасы, триллер , BDRip,DUB ] piratbit.org

Штормовое предупреждение через торрент piratbit.org

Размер: 1.45 GB | Добавлен: 6 лет 7 мес. назад | Торрент скачан:157 раз
Скачать  

22-02-2014 05:13 Штормовое предупреждение Скачать торрент  

Штормовое предупреждение / Storm Warning«Остаться в живых - значит умереть...»Год выпуска:2007
Страна: Австралия
Жанр: ужасы, триллер
Продолжительность: 01:26:13
Перевод: Профессиональный (полное дублирование)

Субтитры: Нет
Режиссер: Джэми Блэнкс / Jamie Blanks

В ролях: Надя Фарес (Pia), Роберт Тейлор (Rob), Дэвид Лайонс (Jimmy), Мэттью Уилкинсон (Brett), Джон Брамптон (Poppy), Джонатан Олдхэм (Red Tracksuit Guy), Пюсс (Honky - Dog)
Описание:
Роб и Пиа, семейная пара, отправляются на лодочную прогулку и попадают в страшную бурю. Их лодка разбита, они выброшены в совершенно безлюдном и жутком месте, окруженном непроходимым лесом... В попытке спрятаться от бушующего дождя и ветра молодые люди находят, как им кажется, заброшенную ферму, в которой обнаруживают большое количество марихуаны. Теперь они понимают, что если вдруг объявится хозяин, им ничего хорошего не светит, но они и не предполагали, что за ужас их ждет.
Рейтинг
kinopoisk.ru: 5.835 (1438)
imdb.com: 5.80 (4441)
MPAA: R - Лицам до 17 лет обязательно присутствие взрослого
Качество: BDRip
Формат: AVI
Видео кодек: XviD
Аудио кодек: AC3
Видео: XviD, 704x400 (16:9), 1953 kbps, 23,976 fps, 0,289 bpp
Аудио: AC3 / 5.1 / 48 kHz / 448 kbps / 16 bit© Оформление by ФёдорOFF
General
Complete name : D:раздачиShtormovoe.preduprezhdenie.Unrated.2007.RUS.BDRip.XviD.AC3.-HQCLUB.avi
Format : AVI
Format/Info : Audio Video Interleave
File size : 1.45 GiB
Duration : 1h 26mn
Overall bit rate : 2 411 Kbps
Movie name : Штормовое предупреждение / Storm Warning [Unrated] (2007) BDRip
Genre : ужасы, триллер
Writing application : VirtualDubMod 1.5.10.2 (build 2540/release)

Video
ID : 0
Format : MPEG-4 Visual
Format profile : Advanced Simple@L5
Format settings, BVOP : 1
Format settings, QPel : No
Format settings, GMC : No warppoints
Format settings, Matrix : Custom
Codec ID : XVID
Codec ID/Hint : XviD
Duration : 1h 26mn
Bit rate : 1 954 Kbps
Width : 704 pixels
Height : 400 pixels
Display aspect ratio : 16:9
Frame rate : 23.976 fps
Color space : YUV
Chroma subsampling : 4:2:0
Bit depth : 8 bits
Scan type : Progressive
Compression mode : Lossy
Bits/(Pixel*Frame) : 0.289
Stream size : 1.18 GiB (81%)
Writing library : XviD 65

Audio
ID : 1
Format : AC-3
Format/Info : Audio Coding 3
Mode extension : CM (complete main)
Codec ID : 2000
Duration : 1h 26mn
Bit rate mode : Constant
Bit rate : 448 Kbps
Channel(s) : 6 channels
Channel positions : Front: L C R, Side: L R, LFE
Sampling rate : 48.0 KHz
Bit depth : 16 bits
Compression mode : Lossy
Stream size : 276 MiB (19%)
Alignment : Split accross interleaves
Interleave, duration : 42 ms (1.00 video frame)
Interleave, preload duration : 500 ms
piratbit.org



Скачать Штормовое предупреждение через торрент http://i4.imageban.ru/out/2014/02/22/ceabd6b183b235fb5db61444f536c6c0.jpg Скачать фильм Штормовое предупреждение через торрент бесплантно в хорошем качестве Описание: Роб и Пиа, семейная пара, отправляются на лодочную прогулку и попадают в страшную бурю. Их лодка разбита, они выброшены в ... 9.8 10 12
Info! Золотая раздача, скачанное не засчитывается.
Торрент: Зарегистрирован [2014-02-22 05:13] · скачан: 157 раз
Статус: √ проверено
Размер: 1.45 GB
Как cкачать? Как скачать Штормовое предупреждение через торрент | qTorrent

% Раздел Тема Автор DL S | L
Фильмы [HD 720p, 1080p] (Хороший звук DUB, MVO) [ 13.15 GB ] Штормовое предупреждение / Storm Warning [2007 BDRip 1080p by msltel] DUB VO msltel Скачать
1 | 0
Фильмы [HD 720p, 1080p] (Хороший звук DUB, MVO) [ 4.16 GB ] Штормовое предупреждение / Storm Warning [2007 BDRip 720p by msltel] DUB VO msltel Скачать
1 | 0
Фильмы 2006-2008 [ 2.45 GB ] Штормовое предупреждение / Storm Warning [2007 BDRip AVC by msltel] DUB VO msltel Скачать
1 | 0
Фильмы 2006-2008 [ 743 MB ] Штормовое предупреждение / Storm Warning [2007 HDRip DUB ] lev1244v Скачать
1 | 0

28-11-2019 20:33  

Отключить всю рекламу на сайте

    Дорогой пользователь! Огромная просьба, поблагодарите релизера, оцените раздачу и оставьте свои комментарий, если Вы скачали Штормовое предупреждение через торрент бесплатно! Внесите свою лепту в развитие PiratBit!
    Комментировать посты могут только пользователи прошедшие не сложную регистрацию
    Показать сообщения:    

    Штормовое предупреждение через торрент
    Скачать бесплатно Штормовое предупреждение
    Штормовое предупреждение скачать торрент
    Штормовое предупреждение смотреть онлайн
    Cкачать фильм Штормовое предупреждение бесплатно
    Штормовое предупреждение скачать торрент в хорошем качестве
    Штормовое предупреждение смотреть онлайн бесплатно в хорошем качестве


    Вы не можете начинать темы
    Вы не можете отвечать на сообщения
    Вы не можете редактировать свои сообщения
    Вы не можете удалять свои сообщения
    Вы не можете голосовать в опросах
    Вы не можете прикреплять файлы к сообщениям
    Вы можете скачивать файлы