Достать ножи: Стеклянная луковица

MVO

Добыча

Дубляж

Уэнсдэй

1 сезон

Тор

Дубляж

13 клиническая

1 сезон

Жестокая ночь

MVO

Одни из нас

1 сезон

Deluxe

pack

Рекомендуем

30

Пиратка

ВАЖНО

ВАЖНО

Ghostwire

Пиратка

jed

RePack

nioh2

RePack

RDR2

RePack

NEED FOR SPEED™ PAYBACK

RePack

скачать торрент

Кинопоиск HD

Острые козырьки 6 сезон

6 сезон

FAR CRY 6

RePack

скачать торрент

Лицензия

скачать торрент

MVO

1

1 сезон

скачать торрент

1 сезон

скачать торрент

Лицензия

  

Безумцы из Скотланд-Ярда / Neues vom Wixxer (Сирил Босс, Филипп Штеннерт) [2007 г., комедия, криминал, детектив, 1080p BD-Remux, Дубляж, AVO, SUB]

Безумцы из Скотланд-Ярда через торрент piratbit.org

Размер: 17.63 GB | Добавлен: 8 лет 11 мес. назад | Торрент скачан:10 раз
Смотреть онлайн | Скачать | Поддержите нас   

24-02-2014 14:57 Безумцы из Скотланд-Ярда Скачать торрент  

Безумцы из Скотланд-Ярда / Neues vom Wixxer

Год выпуска: 2007
Страна: Германия
Жанр: комедия, криминал, детектив
Продолжительность: 01:37:30
Перевод: Дубляж + Одногоголосый закадровый, Ю.Сербин, DVD
Субтитры: Russian (DVD), German

Режиссер: Сирил Босс Филипп Штеннерт
Продюссер: Пэтти Барт, Кристиан Бекер, Йенс Оберветтер
Сценарий: Оливер Калкофе, Оливер Велке, Бастиан Пастевка
Премьера в мире: 11 марта 2007

IMDB 6.20 (2147)


В ролях: Оливер Калкофе, Бастиан Пастевка, Йоахим Фуксбергер, Кристиана Пауль, Кристоф Мария Хербст, Вольфганг Вёльц, Соня Кирхбергер, Юди Винтер, Кристиан Трамиц, Оливер Велке

Описание: Инспекторы Вери Мачо и Вери Мач, гоняются по всему Лондону за неуемным убийцей, который сеет в городе страх и ведет себя вызывающе нагло, устраивая побоище даже в кабинете главы Скотланд-Ярда. Темной-темной ночью на городском кладбище детективы обнаруживают семь свежевырытых могил с надгробными памятниками, на одном из них — имя Вери Мача, на другом — Виктории, любимой девушки его напарника. Им и еще пяти жертвам осталось жить сутки — гласит послание уверенного в своей безнаказанности злодея...

Качество: BD-Remux
Формат: BDAV
Видео кодек: VC-1
Аудио кодек: AC3, DTS, DTS-HD MA
Видео: 1920x1080 at 23,976 fps, VC-1, ~19984 kbps avg
Аудио#1: Russian: 48 kHz, AC3, 2/0 (L,R) ch, ~192.00 kbps avg |Одногоголосый закадровый, Ю.Сербин, DVD|
Аудио#2: Russian: 48 kHz, DTS, 3/2 (L,C,R,l,r) + LFE ch, ~1536.00 kbps avg |Дубляж, DVD|
Аудио#3: German: 48 kHz, DTS-HD MA, 3/2 (L,C,R,l,r) + LFE ch, ~2046.00 kbps avg
Аудио#4: German: 48 kHz, DTS, 2/0 (L,R) ch, ~255.00 kbps avg |Audiokommentar mit Oliver Kalkofe, Oliver Welke und Bastian Pastewka|
Аудио#5: German: 48 kHz, DTS, 2/0 (L,R) ch, ~255.00 kbps avg |Audiokommentar mit deb Regisseuren Cyrill Boss, Philipp Stennert und Produzent Christian Becker|
General
ID : 1 (0x1)
Complete name : /home/sb753/files/Neues.vom.Wixxer.2007.1080p.BDRemux.2xRus.3xGer.HDCLUB/BDMV/STREAM/00000.m2ts
Format : BDAV
Format/Info : Blu-ray Video
File size : 17.6 GiB
Duration : 1h 37mn
Overall bit rate : 25.9 Mbps
Maximum Overall bit rate : 35.5 Mbps

Video
ID : 4113 (0x1011)
Menu ID : 1 (0x1)
Format : VC-1
Format profile : Advanced@L3
Codec ID : 234
Duration : 1h 37mn
Width : 1 920 pixels
Height : 1 080 pixels
Display aspect ratio : 16:9
Frame rate : 23.976 fps
Chroma subsampling : 4:2:0
Bit depth : 8 bits
Scan type : Progressive
Compression mode : Lossy

Audio #1
ID : 4352 (0x1100)
Menu ID : 1 (0x1)
Format : AC-3
Format/Info : Audio Coding 3
Mode extension : CM (complete main)
Format settings, Endianness : Big
Codec ID : 129
Duration : 1h 37mn
Bit rate mode : Constant
Bit rate : 192 Kbps
Channel(s) : 2 channels
Channel positions : Front: L R
Sampling rate : 48.0 KHz
Bit depth : 16 bits
Compression mode : Lossy
Stream size : 134 MiB (1%)

Audio #2
ID : 4353 (0x1101)
Menu ID : 1 (0x1)
Format : DTS
Format/Info : Digital Theater Systems
Codec ID : 130
Duration : 1h 37mn
Bit rate mode : Constant
Bit rate : 1 510 Kbps
Channel(s) : 6 channels
Channel positions : Front: L C R, Side: L R, LFE
Sampling rate : 48.0 KHz
Bit depth : 24 bits
Compression mode : Lossy
Delay relative to video : 21ms
Stream size : 1.03 GiB (6%)

Audio #3
ID : 4354 (0x1102)
Menu ID : 1 (0x1)
Format : DTS
Format/Info : Digital Theater Systems
Format profile : HRA / Core
Muxing mode : Stream extension
Codec ID : 133
Duration : 1h 37mn
Bit rate mode : Constant
Bit rate : 2 047 Kbps / 1 510 Kbps
Channel(s) : 6 channels
Channel positions : Front: L C R, Side: L R, LFE
Sampling rate : 48.0 KHz
Bit depth : 24 bits
Compression mode : Lossy
Stream size : 1.39 GiB (8%)

Audio #4
ID : 4355 (0x1103)
Menu ID : 1 (0x1)
Format : DTS
Format/Info : Digital Theater Systems
Codec ID : 130
Duration : 1h 37mn
Bit rate mode : Constant
Bit rate : Open
Channel(s) : 2 channels
Channel positions : Front: L R
Sampling rate : 48.0 KHz
Bit depth : 16 bits
Compression mode : Lossy

Audio #5
ID : 4356 (0x1104)
Menu ID : 1 (0x1)
Format : DTS
Format/Info : Digital Theater Systems
Codec ID : 130
Duration : 1h 37mn
Bit rate mode : Constant
Bit rate : Open
Channel(s) : 2 channels
Channel positions : Front: L R
Sampling rate : 48.0 KHz
Bit depth : 24 bits
Compression mode : Lossy

Text #1
ID : 4608 (0x1200)
Menu ID : 1 (0x1)
Format : PGS
Codec ID : 144

Text #2
ID : 4609 (0x1201)
Menu ID : 1 (0x1)
Format : PGS
Codec ID : 144



Скачать Безумцы из Скотланд-Ярда через торрент http://i4-imageban-ru.translate.goog/out/2014/02/24/b70ea91981bcbe0e5cbd25b95f6dddb0.png Скачать, смотреть онлайн Безумцы из Скотланд-Ярда бесплантно в хорошем качестве Описание: Инспекторы Вери Мачо и Вери Мач, гоняются по всему Лондону за неуемным убийцей, который сеет в городе страх и ведет себя ... 10 10 2
Info! Золотая раздача, скачанное не засчитывается.
Торрент: Зарегистрирован [2014-02-24 14:57] · скачан: 10 раз
Статус: √ проверено
Размер: 17.63 GB
Как cкачать? Как скачать Безумцы из Скотланд-Ярда через торрент | UTorrent

% Раздел Тема Автор DL S | L
Фильмы 2006-2008 [ 2.18 GB ] Безумцы из Скотланд-Ярда / Neues vom Wixxer | DUB | BDRip-AVC, DUB, AVO, Original, SUB кэп Скачать
1 | 0

28-11-2019 20:33  


Отключить вcю реклaмy на сайте, в т.ч. и в плеере онлайн просмотра!

    Дорогой пользователь! Огромная просьба, поблагодарите релизера, оцените раздачу и оставьте свои комментарий, если Вы скачали Безумцы из Скотланд-Ярда через торрент бесплатно!!
    Комментировать посты могут только пользователи прошедшие не сложную регистрацию
    Показать сообщения:    


    Безумцы из Скотланд-Ярда через торрент
    Скачать бесплатно Безумцы из Скотланд-Ярда
    Безумцы из Скотланд-Ярда скачать торрент
    Безумцы из Скотланд-Ярда смотреть онлайн
    Cкачать фильм Безумцы из Скотланд-Ярда бесплатно
    Безумцы из Скотланд-Ярда скачать торрент в хорошем качестве
    Безумцы из Скотланд-Ярда смотреть онлайн бесплатно в хорошем качестве
    Вы не можете начинать темы
    Вы не можете отвечать на сообщения
    Вы не можете редактировать свои сообщения
    Вы не можете удалять свои сообщения
    Вы не можете голосовать в опросах
    Вы не можете прикреплять файлы к сообщениям
    Вы можете скачивать файлы
    Безумцы из Скотланд-Ярда / Neues vom Wixxer [2007 г., комедия, криминал, детектив, 1080p BD-Remux, Дубляж, AVO, SUB] смотреть онлайн, скачать торрент picoco.icu