Архив 81

1 сезон

Добыча

Дубляж

Тед Лассо

3 сезон

Тор

1 сезон

13 клиническая

3 сезон

Жестокая ночь

Дубляж

Одни из нас

1s 9e

Premium

Premium

Deluxe

Deluxe

pack

Рекомендуем

30

Repack

ВАЖНО

ВАЖНО

Ghostwire

Пиратка

jed

RePack

nioh2

RePack

RDR2

RePack

NEED FOR SPEED™ PAYBACK

RePack

скачать торрент

Кинопоиск HD

Острые козырьки 6 сезон

6 сезон

FAR CRY 6

RePack

скачать торрент

Лицензия

скачать торрент

MVO

1

1 сезон

скачать торрент

1 сезон

скачать торрент

Лицензия

  

Колония / The Colony (Джефф Ренфро / Jeff Renfroe) [2013, ужасы, фантастика, боевик, DVD9] R5 [2D/3D]

Колония через торрент piratbit.org

Размер: 7.81 GB | Добавлен: 9 лет 1 мес. назад | Торрент скачан:396 раз
Смотреть онлайн | Скачать | Поддержите нас   

24-02-2014 17:55 Колония Скачать торрент  


Колония / The Colony
«Они выжили после апокалипсиса. Но не только они»
Страна: Канада
Студия: Alcina Pictures, Item 7, Mad Samurai Productions
Жанр: ужасы, фантастика, боевик
Год выпуска: 2013
Мировая премьера: 26 апреля 2013
Российская премьера: 16 января 2014, 3D
Дата выхода DVD: 20 февраля 2014
Продолжительность: 01:34:26
Перевод: Профессиональный (дублированный) [Лицензия]
Cубтитры: нет
Оригинальная аудиодорожка: нет
Режиссер: Джефф Ренфро / Jeff Renfroe
В ролях: Кевин Зегерс, Лоренс Фишбёрн, Шарлотта Салливан, Билл Пэкстон, Аттикус Дин Митчелл, Дрю Вигевер, Джулиан Ричингс, Джон Тенч, Майкл Мэндо, Романо Орцари
Описание: После природного катаклизма, под ледяной поверхностью, покрывшей Землю, оставшиеся в живых люди собрались в Колонию 7 и пытаются выжить несмотря на сокращающиеся запасы продовольствия. Они еще поддерживают связь с Колонией 5, но после того, как контакт с ними теряется, группа смельчаков отправляется в опасную экспедицию, чтобы выяснить, что произошло с их соседями. Преодолев тяжелейший путь герои сталкиваются с опасностью во много раз превосходящую природную угрозу холода…
Бонусы: нет

Качество: DVD9 R5 2D/3D
Формат: DVD-Video
Видео кодек: MPEG2
Аудио кодек: AC3
Видео: PAL 16:9 (720x576(0.493)) MPEG Video, 25,000 кадр/сек, 5107 Кбит/сек
Аудио: Russian (Dolby AC3, 6 ch) 384 Кбит/сек, 48,0 КГц



Title: Kolonija.2013.DVD9.2D.3D
Size: 7.32 Gb ( 7 678 782,00 KBytes ) - DVD-9
Enabled regions: 1, 2, 3, 4, 5, 6, 7, 8

VTS_01 :
Play Length: 00:00:16
Video: PAL 16:9 (720x576) VBR, Auto Letterboxed
Audio:
Russian (Dolby AC3, 2 ch)

VTS_02 :
Play Length: 01:30:18+01:30:18
Video: PAL 16:9 (720x576) VBR, Auto Letterboxed
Audio:
Russian (Dolby AC3, 6 ch)

* Menus Information *

VIDEO_TS Menu
Video:
NTSC 4:3 (720x480) VBR
Auto Pan&Scan, Auto Letterboxed
Russian Language Unit :
Title Menu

VTS_01 Menu
Video:
NTSC 4:3 (720x480) VBR
Auto Pan&Scan, Auto Letterboxed
Language Unit :
Subpicture Menu
Angle menu
Language Unit :

Language Unit :
Subpicture Menu
Language Unit :
Subpicture Menu
Language Unit :
Subpicture Menu

VTS_02 Menu
Video:
PAL 16:9 (720x576) VBR
Auto Letterboxed
Audio:
Not specified (Dolby AC3, 2 ch)
Russian Language Unit :
Root Menu
Общее
Полное имя : K:Новинки 2013Kolonija.2013.DVD9.2D.3DVIDEO_TSVTS_02_1.VOB
Формат : MPEG-PS
Размер файла : 1024 Мбайт
Продолжительность : 25 м.
Режим общего битрейта : Переменный
Общий поток : 5603 Кбит/сек

Видео
Идентификатор : 224 (0xE0)
Формат : MPEG Video
Версия формата : Version 2
Профиль формата : [email protected]
Параметр BVOP формата : Да
Параметр матрицы формата : Выборочная
Параметр GOP формата : M=3, N=15
Продолжительность : 25 м.
Вид битрейта : Переменный
Битрейт : 5107 Кбит/сек
Максимальный битрейт : 8000 Кбит/сек
Ширина : 720 пикселей
Высота : 576 пикселей
Соотношение сторон : 16:9
Частота кадров : 25,000 кадров/сек
Стандарт вещания : PAL
Цветовое пространство : YUV
Субдискретизация насыщенности : 4:2:0
Битовая глубина : 8 бит
Тип развёртки : Прогрессивная
Метод сжатия : С потерями
Бит/(Пиксели*Кадры) : 0.493
Временной код первого кадра : 00:00:00:00
Оригинал временного кода : Group of pictures header
Размер потока : 933 Мбайт (91%)

Аудио
Идентификатор : 189 (0xBD)-128 (0x80)
Формат : AC-3
Формат/Информация : Audio Coding 3
Расширение режима : CM (complete main)
Параметр Endianness формата : Big
Режим смешивания : DVD-Video
Продолжительность : 25 м.
Вид битрейта : Постоянный
Битрейт : 384 Кбит/сек
Каналы : 6 каналов
Расположение каналов : Front: L C R, Side: L R, LFE
Частота : 48,0 КГц
Битовая глубина : 16 бит
Метод сжатия : С потерями
Размер потока : 70,2 Мбайт (7%)













Скачать Колония через торрент http://i60.fastpic.ru/big/2014/0224/cc/ec4dca5734634d6ee223a17e19ed4acc.jpg Скачать, смотреть онлайн Колония бесплантно в хорошем качестве Описание: После природного катаклизма, под ледяной поверхностью, покрывшей Землю, оставшиеся в живых люди собрались в Колонию 7 и пытаются ... 8.7 10 14
Info! Золотая раздача, скачанное не засчитывается.
Торрент: Зарегистрирован [2014-02-24 17:55] · скачан: 396 раз
Статус: √ проверено
Размер: 7.81 GB
Как cкачать? Как скачать Колония через торрент | UTorrent

% Раздел Тема Автор DL S | L
Фильмы [HD 720p, 1080p] (Хороший звук DUB, MVO) [ 4.62 GB ] Колония / The Colony | Лицензия | 720p diletant Скачать
1 | 0

28-11-2019 20:33  


Отключить вcю реклaмy на сайте, в т.ч. и в плеере онлайн просмотра!

29-04-2014 07:20 Колония Скачать торрент  

Кто-то еще смотрит анаглиф? оО



    Дорогой пользователь! Огромная просьба, поблагодарите релизера, оцените раздачу и оставьте свои комментарий, если Вы скачали Колония через торрент бесплатно!!
    Комментировать посты могут только пользователи прошедшие не сложную регистрацию
    Показать сообщения:    


    Колония через торрент
    Скачать бесплатно Колония
    Колония скачать торрент
    Колония смотреть онлайн
    Cкачать фильм Колония бесплатно
    Колония скачать торрент в хорошем качестве
    Колония смотреть онлайн бесплатно в хорошем качестве
    Вы не можете начинать темы
    Вы не можете отвечать на сообщения
    Вы не можете редактировать свои сообщения
    Вы не можете удалять свои сообщения
    Вы не можете голосовать в опросах
    Вы не можете прикреплять файлы к сообщениям
    Вы можете скачивать файлы
    Колония / The Colony [2013, ужасы, фантастика, боевик, DVD9] R5 [2D/3D] смотреть онлайн, скачать торрент picoco.icu