Достать ножи: Стеклянная луковица

MVO

Добыча

Дубляж

Уэнсдэй

1 сезон

Тор

Дубляж

13 клиническая

1 сезон

Жестокая ночь

MVO

Одни из нас

1 сезон

Deluxe

pack

Рекомендуем

30

Пиратка

ВАЖНО

ВАЖНО

Ghostwire

Пиратка

jed

RePack

nioh2

RePack

RDR2

RePack

NEED FOR SPEED™ PAYBACK

RePack

скачать торрент

Кинопоиск HD

Острые козырьки 6 сезон

6 сезон

FAR CRY 6

RePack

скачать торрент

Лицензия

скачать торрент

MVO

1

1 сезон

скачать торрент

1 сезон

скачать торрент

Лицензия

  

Космический Джэм / Space Jam (Джо Питка) [1996 г., Семейный, BD-Remux, Дубляж]

Космический Джэм через торрент piratbit.org

Размер: 13.77 GB | Добавлен: 8 лет 10 мес. назад | Торрент скачан:18 раз
Смотреть онлайн | Скачать | Поддержите нас   

01-03-2014 19:31 Космический Джэм Скачать торрент  

Космический Джэм / Space Jam
Год выпуска: 1996
Страна: США
Жанр: Семейный,
Продолжительность: 01:27:20
Перевод: Дубляж [Мост-Видео]+Профессиональный многоголосый (НТВ)+
Авторский одноголосый (Павел Санаев)+Оригинал
Субтитры: Русские, английские

Режиссер: Джо Питка

В ролях: Майкл Джордан, Уэйн Найт, Билли Уэст, Ди Брэдли Бейкер, Тереза Рэндл, Дэнни ДеВито, Боб Берген, Эрик Гордон, Пенни Бай Бриджес,

Описание: Кролик и чемпион - что за команда! Майкл Джордан бьет по мячу, а Багз Банни тусуется. Вся кавалькада звезд из серии "Сумасшедшие мелодии" не даст Вам скучать в мультипликационно-игровом фильме Космический джэм, в котором голливудские таланты не позволят Вашей фантазии связать себя земным притяжением. Шутки летают и веселье никогда не кончается. Кролик Багз Банни устроил себе и своей команде "веселенькое" испытание, предложив померяться силами со сварливой бандой крошечных космических пришельцев. От исхода матча зависит, останутся ли мультгерои на Земле, или отправятся развлекать публику в заброшенной космической дыре под названием Гора Морон. Пришельцы владеют страшным секретным оружием: украденным у звезд баскетбола мастерством, что помогло им стать спортивными монстрами. Но это еще не все, ребята! У команды мультяшек есть свое секретное оружие: лучший игрок в этой, и прочих галактиках! Веселье - тоже галактическое

Качество: BD-Remux
Формат: MKV
Видео кодек: H.264
Аудио кодек: AC3-DTS
Видео: MPEG-4 AVC, (1920x1080),18500Кбит/с, 23976 кадра/сек
Аудио#1: AC-3, 6 ch, 384 kbps (Rus) 48.0 KHz Дубляж [Мост-Видео]
Аудио#2: AC-3, 2 ch, 192 kbps (Rus) 48.0 KHz Профессиональный многоголосый (НТВ)
Аудио#3: DTS, 6 ch, 1509 kbps (Rus) 48.0 KHz Авторский одноголосый (Павел Санаев)
Аудио#4: DTS,6 ch, 1509 kbps (Eng) 48.0 KHz Оригинал
скриншот   скриншот   скриншот  

Тип потока: Видео
Длительность: 01:27:20
Кодек: AVC
Кодек/описание: Advanced Video Codec
Кодек/профиль: High@L4.1
Кодек/ID: V_MPEG4/ISO/AVC
Кодек/CABAC: Yes
Кодек/ReFrames: 2 frames
Размеры изображения: 1920 x 1080 (16:9)
Частота кадров: 23.976 fps
Частота кадров/тип: Constant
Размер потока: 11.3 GiB (82%)
Битрейт: 18.5 Mbps
Битрейт/тип: VBR
Цветовое пространство: YUV
Тип развёртки: Progressive
Глубина: 8 bits
:
Тип потока: Звук #1
Язык: Russian
Название: Дубляж [Мост-Видео]
Длительность: 01:27:20.278
Кодек: AC-3
Кодек/описание: Audio Coding 3
Кодек/ID: A_AC3
Частота дискретизации: 48.0 KHz
Каналов: 6 channels
Битрейт: 384 Kbps
Битрейт/тип: Constant
Размер потока: 240 MiB (2%)
Глубина: 16 bits
Метод сжатия: Lossy
:
Тип потока: Звук #2
Язык: Russian
Название: Многоголосый [НТВ]
Длительность: 01:27:20.278
Кодек: AC-3
Кодек/описание: Audio Coding 3
Кодек/ID: A_AC3
Частота дискретизации: 48.0 KHz
Каналов: 2 channels
Битрейт: 192 Kbps
Битрейт/тип: Constant
Размер потока: 120 MiB (1%)
Глубина: 16 bits
Метод сжатия: Lossy
:
Тип потока: Звук #3
Язык: Russian
Название: Авторский [Санаев]
Длительность: 01:27:20.278
Кодек: DTS
Кодек/описание: Digital Theater Systems
Кодек/ID: A_DTS
Частота дискретизации: 48.0 KHz
Каналов: 6 channels
Битрейт: 1 510 Kbps
Битрейт/тип: Constant
Размер потока: 943 MiB (7%)
Глубина: 24 bits
Метод сжатия: Lossy
:
Тип потока: Звук #4
Язык: English
Длительность: 01:27:20.278
Кодек: DTS
Кодек/описание: Digital Theater Systems
Кодек/ID: A_DTS
Частота дискретизации: 48.0 KHz
Каналов: 6 channels
Битрейт: 1 509 Kbps
Битрейт/тип: Constant
Размер потока: 943 MiB (7%)
Глубина: 24 bits
Метод сжатия: Lossy
:
Тип потока: Субтитры #1
Язык: Russian
Формат: UTF-8
Формат/подробно: UTF-8 Plain Text
:
Тип потока: Субтитры #2
Язык: English
Формат: UTF-8
Формат/подробно: UTF-8 Plain Text




Скачать Космический Джэм через торрент https://pic1.kartinco.top/images/61/1qin1.jpg Скачать, смотреть онлайн Космический Джэм бесплантно в хорошем качестве Описание: Кролик и чемпион - что за команда! Майкл Джордан бьет по мячу, а Багз Банни тусуется. Вся кавалькада звезд из серии "Сумасшедшие ... 9.8 10 9
Торрент: Зарегистрирован [2014-03-01 19:31] · скачан: 18 раз
Статус: √ проверено
Размер: 13.77 GB
Как cкачать? Как скачать Космический Джэм через торрент | UTorrent

% Раздел Тема Автор DL S | L
Фильмы до 2000 г. [ 2.09 GB ] Космический Джэм / Space Jam | DUB | HDRip killermax2013 Скачать
1 | 0
Иностранные мультфильмы [ 1.45 GB ] Космический Джэм / Space Jam | | BDRip-AVC, Профессиональный (дублированный 61Rus_Mishka Скачать
1 | 0
Фильмы до 2000 г. [ 1.37 GB ] Космический джэм / Space Jam | | DVDRip, Пиратка Anonymous Скачать
1 | 0

28-11-2019 20:33  


Отключить вcю реклaмy на сайте, в т.ч. и в плеере онлайн просмотра!

26-03-2017 06:49 Космический Джэм Скачать торрент  

а можно кого нить раздачу плиз



    Дорогой пользователь! Огромная просьба, поблагодарите релизера, оцените раздачу и оставьте свои комментарий, если Вы скачали Космический Джэм через торрент бесплатно!!
    Комментировать посты могут только пользователи прошедшие не сложную регистрацию
    Показать сообщения:    


    Космический Джэм через торрент
    Скачать бесплатно Космический Джэм
    Космический Джэм скачать торрент
    Космический Джэм смотреть онлайн
    Cкачать фильм Космический Джэм бесплатно
    Космический Джэм скачать торрент в хорошем качестве
    Космический Джэм смотреть онлайн бесплатно в хорошем качестве
    Вы не можете начинать темы
    Вы не можете отвечать на сообщения
    Вы не можете редактировать свои сообщения
    Вы не можете удалять свои сообщения
    Вы не можете голосовать в опросах
    Вы не можете прикреплять файлы к сообщениям
    Вы можете скачивать файлы
    Космический Джэм / Space Jam [1996 г., Семейный, BD-Remux, Дубляж] смотреть онлайн, скачать торрент picoco.icu