Ссылка на приватное зеркало нашего сайта всего за 1$. Внимание количество ограничено!!!

2 сезон

iTunes

iTunes

1

iTunes

iTunes

iTunes

WEBRip

iTunes

30
pack

Вам бонус

ВАЖНО

!!Акция!!

Alien_RageХит недели

RePack

Horizon Zero Dawn

ИГРА 18+

pack

RePack

jed

!!Акция!!

Alien_Rage

RePack

fifa19

RePack

Assassins Creed: Odyssey

RePack

NEED FOR SPEED™ PAYBACK

4 сезон

9 сезон

Бесстыжие 9 сезон

Все сериалы

все сериалы на PB.wtf

RePack

FAR CRY 5
  

Сенсация / Scoop (Вуди Аллен) [2006 г., комедия, детектив, BDRip-AVC, MVO, AVO, SUB] от R.G. PiratFilms piratbit.org

Сенсация через торрент piratbit.org

Размер: 2.18 GB | Добавлен: 6 лет 6 мес. назад | Торрент скачан:140 раз
Скачать  

02-03-2014 08:41 Сенсация Скачать торрент  

Сенсация / Scoop
Год выпуска: 2006
Страна: Великобритания, США
Жанр: комедия, детектив
Продолжительность: 01:35:33
Перевод: Профессиональный многоголосый + Авторский
Субтитры: Russian

Режиссер: Вуди Аллен
Продюссер: Летти Аронсон, Гарет Уайли, Ники Кентиш Барнс
Сценарий: Вуди Аллен
Бюджет: $4 000 000
Премьера в мире: 28 июля 2006

IMDB 6.80 (52 394)


В ролях: Скарлетт Йоханссон, Хью Джекман, Ромола Гарай, Иэн МакШейн, Кевин МакНэлли, Вуди Аллен, Мэтт Дэй, Энтони Хэд, Джим Данк, Роберт Баферст

Описание: Погибшего британского журналиста Джо Стромбела оплакивают его друзья и коллеги, но даже в чистилище Джо не покидают мысли о работе, ведь он только что узнал сенсационную новость об убийце, орудующем в Лондоне. Как же ему теперь сделать работу, которая требует столько беготни?С помощью вполне живой Сондры Прански. Сондра — американская студентка, изучающая журналистику, приезжает к друзьям в Лондон. Во время выступления американского мага Сида Вотермана, Сондра видит и слышит Джо. Он рассказывает ей о сенсационной новости, которая станет величайшим репортажем в ее жизни, убеждая отправиться на ее поиски. Сондра бросается в погоню за сенсацией...



Качество: BDRip-AVC
Исходник: BD-Remux 1080p-HDTRACKER
Формат: MKV
Видео кодек: AVC
Аудио кодек: AC3
Видео: AVC, 1024x432 (2.35:1), 23.976 fps, 2 368 Kbps (0.223 bit/pixel)
Аудио#1: AC-3, 48.0 KHz, 6 ch, 448 Kbps, CBR (Russian-MVO)
Аудио#2: AC-3, 48.0 KHz, 6 ch, 448 Kbps, CBR (Russian-AVO.Гаврилов)
x264 [info]: frame I:770 Avg QP:15.70 size: 79626 PSNR Mean Y:47.67 U:54.18 V:54.80 Avg:48.68 Global:47.76
x264 [info]: frame P:26891 Avg QP:18.62 size: 30037 PSNR Mean Y:44.20 U:49.57 V:50.17 Avg:45.24 Global:44.65
x264 [info]: frame B:109798 Avg QP:21.40 size: 7533 PSNR Mean Y:42.76 U:49.95 V:50.61 Avg:43.98 Global:43.35
x264 [info]: consecutive B-frames: 1.1% 1.4% 4.7% 16.1% 18.0% 42.6% 7.8% 3.2% 2.1% 1.1% 0.8% 0.4% 0.6%
x264 [info]: ref P L0: 40.6% 12.8% 17.6% 6.9% 6.3% 4.3% 4.3% 2.3% 2.5% 2.2% 0.2% 0.0%
x264 [info]: ref B L0: 70.3% 12.2% 6.4% 3.5% 2.5% 2.2% 1.8% 0.8% 0.4%
x264 [info]: ref B L1: 91.8% 8.2%
Формат : Matroska
Версия формата : Version 4 / Version 2
Размер файла : 2,18 Гбайт
Продолжительность : 1 ч. 35 м.
Общий поток : 3265 Кбит/сек
Название фильма : Scoop (2006) BDRip-AVC от R.G. PiratFilms
Дата кодирования : UTC 2014-03-01 21:35:58
Программа кодирования : mkvmerge v6.6.0 ('The Edge Of The In Between') built on Dec 1 2013 17:55:00
Библиотека кодирования : libebml v1.3.0 + libmatroska v1.4.1

Видео
Идентификатор : 1
Формат : AVC
Формат/Информация : Advanced Video Codec
Профиль формата : High@L4.1
Параметр CABAC формата : Да
Параметр ReFrames формата : 10 кадров
Идентификатор кодека : V_MPEG4/ISO/AVC
Продолжительность : 1 ч. 35 м.
Битрейт : 2368 Кбит/сек
Ширина : 1024 пикселя
Высота : 432 пикселя
Соотношение сторон : 2,40:1
Режим частоты кадров : Постоянный
Частота кадров : 23,976 кадра/сек
Цветовое пространство : YUV
Субдискретизация насыщенности : 4:2:0
Битовая глубина : 8 бит
Тип развёртки : Прогрессивная
Бит/(Пиксели*Кадры) : 0.223
Размер потока : 1,54 Гбайт (71%)
Заголовок : Rip ot kep
Библиотека кодирования : x264 core 138 r2358 9e941d1
Настройки программы : cabac=1 / ref=10 / deblock=1:-3:-2 / analyse=0x3:0x133 /
me=umh / subme=9 / psy=1 / psy_rd=1.00:0.00 / mixed_ref=1 / me_range=32 / chroma_me=1 /
trellis=2 / 8x8dct=1 / cqm=0 / deadzone=21,11 / fast_pskip=0 / chroma_qp_offset=-2 /
threads=2 / lookahead_threads=1 / sliced_threads=0 / nr=0 / decimate=1 / interlaced=0 /
bluray_compat=0 / constrained_intra=0 / bframes=12 / b_pyramid=2 / b_adapt=2 /
b_bias=0 / direct=3 / weightb=1 / open_gop=0 / weightp=2 / keyint=240 / keyint_min=23 /
scenecut=40 / intra_refresh=0 / rc_lookahead=60 / rc=2pass / mbtree=1 / bitrate=2368 /
ratetol=1.0 / qcomp=0.60 / qpmin=10 / qpmax=51 / qpstep=4 / cplxblur=20.0 / qblur=0.5 /
ip_ratio=1.40 / aq=1:1.00
Язык : English
Default : Да
Forced : Нет

Аудио #1
Идентификатор : 2
Формат : AC-3
Формат/Информация : Audio Coding 3
Расширение режима : CM (complete main)
Параметр Endianness формата : Big
Идентификатор кодека : A_AC3
Продолжительность : 1 ч. 35 м.
Вид битрейта : Постоянный
Битрейт : 448 Кбит/сек
Каналы : 6 каналов
Расположение каналов : Front: L C R, Side: L R, LFE
Частота : 48,0 КГц
Битовая глубина : 16 бит
Метод сжатия : С потерями
Размер потока : 306 Мбайт (14%)
Заголовок : MVO
Язык : Russian
Default : Нет
Forced : Нет

Аудио #2
Идентификатор : 3
Формат : AC-3
Формат/Информация : Audio Coding 3
Расширение режима : CM (complete main)
Параметр Endianness формата : Big
Идентификатор кодека : A_AC3
Продолжительность : 1 ч. 35 м.
Вид битрейта : Постоянный
Битрейт : 448 Кбит/сек
Каналы : 6 каналов
Расположение каналов : Front: L C R, Side: L R, LFE
Частота : 48,0 КГц
Битовая глубина : 16 бит
Метод сжатия : С потерями
Размер потока : 306 Мбайт (14%)
Заголовок : AVO.Гаврилов
Язык : Russian
Default : Да
Forced : Нет

Текст
Идентификатор : 4
Формат : UTF-8
Идентификатор кодека : S_TEXT/UTF8
Идентификатор кодека/Информация : UTF-8 Plain Text
Язык : Russian
Default : Нет
Forced : Нет
Сэмпл / Трейлер
piratbit.org



Скачать Сенсация через торрент http://i2.imageban.ru/out/2014/03/02/b2703b1fe7c2cd220385cc7d8d196567.png Скачать фильм Сенсация через торрент бесплантно в хорошем качестве Описание: Погибшего британского журналиста Джо Стромбела оплакивают его друзья и коллеги, но даже в чистилище Джо не покидают мысли о ... 9.8 10 6
Info! Золотая раздача, скачанное не засчитывается.
Торрент: Зарегистрирован [2014-03-02 08:41] · скачан: 140 раз
Статус: √ проверено
Размер: 2.18 GB
Как cкачать? Как скачать Сенсация через торрент | qTorrent

28-11-2019 20:33  

Отключить всю рекламу на сайте

08-03-2014 15:45 Сенсация Скачать торрент  

обожаю этот фильм)piratbit.org



    Дорогой пользователь! Огромная просьба, поблагодарите релизера, оцените раздачу и оставьте свои комментарий, если Вы скачали Сенсация через торрент бесплатно! Внесите свою лепту в развитие PiratBit!
    Комментировать посты могут только пользователи прошедшие не сложную регистрацию
    Показать сообщения:    

    Сенсация через торрент
    Скачать бесплатно Сенсация
    Сенсация скачать торрент
    Сенсация смотреть онлайн
    Cкачать фильм Сенсация бесплатно
    Сенсация скачать торрент в хорошем качестве
    Сенсация смотреть онлайн бесплатно в хорошем качестве


    Вы не можете начинать темы
    Вы не можете отвечать на сообщения
    Вы не можете редактировать свои сообщения
    Вы не можете удалять свои сообщения
    Вы не можете голосовать в опросах
    Вы не можете прикреплять файлы к сообщениям
    Вы можете скачивать файлы