Доктор Стрэндж

Лицензия

Добыча

Дубляж

Дом дракона

1 сезон

Тор

Дубляж

В эфире

Дубляж

Там, где раки поют

MVO

Властелин колец

1 сезон

Deluxe

pack

Рекомендуем

30

Пиратка

ВАЖНО

ВАЖНО

Ghostwire

Пиратка

jed

RePack

nioh2

RePack

RDR2

RePack

NEED FOR SPEED™ PAYBACK

RePack

скачать торрент

Кинопоиск HD

Острые козырьки 6 сезон

6 сезон

FAR CRY 6

RePack

скачать торрент

Лицензия

скачать торрент

MVO

1

1 сезон

скачать торрент

1 сезон

скачать торрент

Лицензия

  

Злая кровь / Wicked blood (2014) BDRip 720p от CINEMANIA / L1

Злая кровь через торрент piratbit.org

Размер: 4.66 GB | Добавлен: 8 лет 8 мес. назад | Торрент скачан:21 раз
Смотреть онлайн | Скачать   

02-03-2014 17:18 Злая кровь Скачать торрент  

Название: Злая кровь
Оригинальное название: Wicked blood
Год выпуска: 2014
Жанр: боевик, драма, триллер
Режиссер: Марк Янг
В ролях: Эбигейл Бреслин, Алекса ПенаВега, Шон Бин, Джеймс Пьюрфой, Джейк Бьюзи

Описание:
Ханна живет в глухой провинции в обществе дяди - наркомана и старшей сестры - стервы. Каждый вечер проходит за выяснением отношений с родней, а каждые выходные - обязательный поход на обед к другому дяде, местному авторитету и наркоторговцу. Единственная радость в жизни: посещение шахматного кружка. Однажды, проснувшись утром, Ханна окончательно понимает, что в этой дыре ей ничего не светит и решает бежать в поисках лучшей жизни. Но для начала, чтобы скопить денег на билет в счастливое будущее, устраивается работать наркокурьером.



Выпущено: США
Продолжительность: 01:31:48
Озвучивание: Любительское (одноголосое) [datynet]

Файл
Формат: MKV
Качество: BDRip 720p [ROVERS]
Видео: 5302 kb/s, 1280х544
Аудио: Russian: AC3, 448 kb/s (6 ch) / English: DTS, 1510 kb/s (6 ch)
Субтитры: Russian [Михаил Васильев], English
Дополнительно: Сохранены оригинальные чаптеры как на Blu-Ray
Размер: 4.66 GB
Скачать: Сэмпл

Релиз группы:

Общее
Wicked.Blood.2014.Blu.Ray.720p.CINEMANIA.mkv
Формат : Matroska
Версия формата : Version 4 / Version 2
Размер файла : 4,66 Гбайт
Продолжительность : 1 ч. 31 м.
Общий поток : 7263 Кбит/сек
Название фильма : Release Group CINEMANIA
Дата кодирования : UTC 2014-03-02 15:58:48
Программа кодирования : mkvmerge v6.7.0 ('Back to the Ground') 64bit built on Jan 8 2014 15:10:52
Библиотека кодирования : libebml v1.3.0 + libmatroska v1.4.1

Видео
Идентификатор : 1
Формат : AVC
Формат/Информация : Advanced Video Codec
Профиль формата : High@L4.1
Параметр CABAC формата : Да
Параметр ReFrames формата : 5 кадров
Идентификатор кодека : V_MPEG4/ISO/AVC
Продолжительность : 1 ч. 31 м.
Битрейт : 5302 Кбит/сек
Ширина : 1280 пикселей
Высота : 544 пикселя
Соотношение сторон : 2,35:1
Режим частоты кадров : Постоянный
Частота кадров : 23,976 кадра/сек
Цветовое пространство : YUV
Субдискретизация насыщенности : 4:2:0
Битовая глубина : 8 бит
Тип развёртки : Прогрессивная
Бит/(Пиксели*Кадры) : 0.318
Размер потока : 3,31 Гбайт (71%)
Заголовок : Release Group CINEMANIA
Библиотека кодирования : x264 core 140 r2377 1ca7bb9
Настройки программы : cabac=1 / ref=5 / deblock=1:0:0 / analyse=0x3:0x133 / me=umh / subme=7 / psy=1 / psy_rd=1.00:0.00 / mixed_ref=1 / me_range=16 / chroma_me=1 / trellis=1 / 8x8dct=1 / cqm=0 / deadzone=21,11 / fast_pskip=0 / chroma_qp_offset=-2 / threads=36 / lookahead_threads=4 / sliced_threads=0 / nr=0 / decimate=1 / interlaced=0 / bluray_compat=0 / constrained_intra=0 / bframes=3 / b_pyramid=2 / b_adapt=1 / b_bias=0 / direct=1 / weightb=1 / open_gop=0 / weightp=2 / keyint=250 / keyint_min=23 / scenecut=40 / intra_refresh=0 / rc_lookahead=40 / rc=2pass / mbtree=1 / bitrate=5302 / ratetol=1.0 / qcomp=0.60 / qpmin=0 / qpmax=69 / qpstep=4 / cplxblur=20.0 / qblur=0.5 / ip_ratio=1.40 / aq=1:1.00
Язык : English
Default : Да
Forced : Нет

Аудио #1
Идентификатор : 2
Формат : AC-3
Формат/Информация : Audio Coding 3
Расширение режима : CM (complete main)
Параметр Endianness формата : Big
Идентификатор кодека : A_AC3
Продолжительность : 1 ч. 31 м.
Вид битрейта : Постоянный
Битрейт : 448 Кбит/сек
Каналы : 6 каналов
Расположение каналов : Front: L C R, Side: L R, LFE
Частота : 48,0 КГц
Битовая глубина : 16 бит
Метод сжатия : С потерями
Размер потока : 294 Мбайт (6%)
Заголовок : datynet
Язык : Russian
Default : Да
Forced : Да

Аудио #2
Идентификатор : 3
Формат : DTS
Формат/Информация : Digital Theater Systems
Режим : 16
Параметр Endianness формата : Big
Идентификатор кодека : A_DTS
Продолжительность : 1 ч. 31 м.
Вид битрейта : Постоянный
Битрейт : 1509 Кбит/сек
Каналы : 6 каналов
Расположение каналов : Front: L C R, Side: L R, LFE
Частота : 48,0 КГц
Битовая глубина : 24 бит
Метод сжатия : С потерями
Размер потока : 991 Мбайт (21%)
Язык : English
Default : Нет
Forced : Нет

Текст #1
Идентификатор : 4
Формат : UTF-8
Идентификатор кодека : S_TEXT/UTF8
Идентификатор кодека/Информация : UTF-8 Plain Text
Заголовок : Михаил Васильев
Язык : Russian
Default : Нет
Forced : Нет

Текст #2
Идентификатор : 5
Формат : UTF-8
Идентификатор кодека : S_TEXT/UTF8
Идентификатор кодека/Информация : UTF-8 Plain Text
Язык : English
Default : Нет
Forced : Нет

Меню
00:00:00.000 : en:00:00:00.000
00:05:39.130 : en:00:05:39.130
00:11:25.768 : en:00:11:25.768
00:17:42.853 : en:00:17:42.853
00:23:19.189 : en:00:23:19.189
00:29:05.869 : en:00:29:05.869
00:34:58.847 : en:00:34:58.847
00:42:22.331 : en:00:42:22.331
00:47:17.460 : en:00:47:17.460
00:52:13.547 : en:00:52:13.547
00:57:47.089 : en:00:57:47.089
01:05:24.170 : en:01:05:24.170
01:10:47.034 : en:01:10:47.034
01:15:41.662 : en:01:15:41.662
01:20:30.576 : en:01:20:30.576
01:28:19.085 : en:01:28:19.085



Скачать Злая кровь через торрент http://6.firepic.org/6/images/2014-03/02/cfx14txyszy6.jpg Скачать, смотреть онлайн Злая кровь бесплантно в хорошем качестве Описание: Ханна живет в глухой провинции в обществе дяди - наркомана и старшей сестры - стервы. Каждый вечер проходит за выяснением ... 10 10 5
Торрент: Зарегистрирован [2014-03-02 17:18] · скачан: 21 раз
Статус: √ проверено
Размер: 4.66 GB
Как cкачать? Как скачать Злая кровь через торрент | UTorrent

28-11-2019 20:33  


Отключить вcю реклaмy на сайте, в т.ч. и в плеере онлайн просмотра!

    Дорогой пользователь! Огромная просьба, поблагодарите релизера, оцените раздачу и оставьте свои комментарий, если Вы скачали Злая кровь через торрент бесплатно!!
    Комментировать посты могут только пользователи прошедшие не сложную регистрацию
    Показать сообщения:    


    Злая кровь через торрент
    Скачать бесплатно Злая кровь
    Злая кровь скачать торрент
    Злая кровь смотреть онлайн
    Cкачать фильм Злая кровь бесплатно
    Злая кровь скачать торрент в хорошем качестве
    Злая кровь смотреть онлайн бесплатно в хорошем качестве
    Вы не можете начинать темы
    Вы не можете отвечать на сообщения
    Вы не можете редактировать свои сообщения
    Вы не можете удалять свои сообщения
    Вы не можете голосовать в опросах
    Вы не можете прикреплять файлы к сообщениям
    Вы можете скачивать файлы
    Злая кровь / Wicked blood BDRip 720p от CINEMANIA / L1 смотреть онлайн, скачать торрент picoco.icu