Достать ножи: Стеклянная луковица

MVO

Добыча

Дубляж

Уэнсдэй

1 сезон

Тор

Дубляж

13 клиническая

1 сезон

Жестокая ночь

MVO

Одни из нас

1 сезон

Deluxe

pack

Рекомендуем

30

Пиратка

ВАЖНО

ВАЖНО

Ghostwire

Пиратка

jed

RePack

nioh2

RePack

RDR2

RePack

NEED FOR SPEED™ PAYBACK

RePack

скачать торрент

Кинопоиск HD

Острые козырьки 6 сезон

6 сезон

FAR CRY 6

RePack

скачать торрент

Лицензия

скачать торрент

MVO

1

1 сезон

скачать торрент

1 сезон

скачать торрент

Лицензия

  

Гусар на крыше / Le hussard sur le toit (Жан-Поль Раппено) [1995 г., драма, мелодрама, приключения, военный, BD-Remux, Профессиональный многоголосый]

Гусар на крыше через торрент piratbit.org

Размер: 17.67 GB | Добавлен: 8 лет 11 мес. назад | Торрент скачан:3 раза
Смотреть онлайн | Скачать | Поддержите нас   

03-03-2014 06:05 Гусар на крыше Скачать торрент  

Гусар на крыше / Le hussard sur le toit

Год выпуска: 1995
Страна: Франция
Жанр: драма, мелодрама, приключения, военный
Продолжительность: 02:09:05
Перевод: Профессиональный многоголосый
Субтитры: русские, английские
Формат субтитров: softsub (SRT)

Режиссер: Жан-Поль Раппено
Продюссер: Бернард Буи, Рене Клейтман
Сценарий: Жан-Клод Карьер, Нина Компанез, Жан-Поль Раппено
Бюджет: $1 320 043
Премьера в мире: 20 сентября 1995

IMDB 7.10 (4244)


В ролях: Жюльет Бинош, Оливье Мартинес, Пьер Ардити, Франсуа Клюзе, Жерар Депардье, Жан Янн, Клаудио Амендола, Изабель Карре, Карло Чекки, Кристиана Коэнди, Жак Серей

Описание: Действие приключенческой мелодрамы происходит в начале XIX века после падения Наполеона. 25-летний итальянский полковник, скрывающийся во Франции от австрийской тайной полиции, бежит от преследования убийц в самый разгар холеры.Случай сводит его с молодой и красивой маркизой, которой он предлагает свою помощь, будучи юношей не только красивым, но и благородным. Вместе они переживают множество опасных и романтичных приключений на грани жизни и смерти, «помочь преодолеть которые сможет только любовь...

Качество: BD-Remux
Формат: MKV
Видео кодек: MPEG-2
Аудио кодек: AC3 / DTS-HD Ma
Видео: MPEG-2 / NTSC 16:9 / 1920x1080 (2,35:1) / 16997 kbps / 23,976 fps / Main@High
Аудио#1: Russian / AC3 / 48 kHz / 5.1 Ch / 384 kbps / 16 bit / MVO
Аудио#2: French / DTS-HD Master Audio / 5.1 Ch / 48 kHz / 2225 kbps / 16-bit (DTS Core: 5.1 Ch / 48 kHz / 1509 kbps / 16-bit) / Original
General
Unique ID : 234889910276907738778725688925369207800 (0xB0B626B3F92240F68718ED3F20390BF8)
Complete name : /home/sb753/files/Le hussard sur le toit.1995.BDRemux.1080p.mkv
Format : Matroska
Format version : Version 4 / Version 2
File size : 17.7 GiB
Duration : 2h 9mn
Overall bit rate mode : Variable
Overall bit rate : 19.6 Mbps
Encoded date : UTC 2014-03-01 13:47:36
Writing application : mkvmerge v6.7.0 ('Back to the Ground') 64bit built on Jan 8 2014 15:10:52
Writing library : libebml v1.3.0 + libmatroska v1.4.1

Video
ID : 1
Format : MPEG Video
Format version : Version 2
Format profile : Main@High
Format settings, BVOP : No
Format settings, Matrix : Custom
Codec ID : V_MPEG2
Codec ID/Info : MPEG 1 or 2 Video
Duration : 2h 9mn
Bit rate mode : Variable
Bit rate : 17.2 Mbps
Maximum bit rate : 30.0 Mbps
Width : 1 920 pixels
Height : 1 080 pixels
Display aspect ratio : 16:9
Frame rate : 23.976 fps
Standard : Component
Color space : YUV
Chroma subsampling : 4:2:0
Bit depth : 8 bits
Scan type : Progressive
Compression mode : Lossy
Bits/(Pixel*Frame) : 0.346
Stream size : 15.5 GiB (88%)
Writing library : TMPGEnc XPress / 4.5.2.255 4.5.2.255
Language : French
Default : Yes
Forced : No
Color primaries : BT.709
Transfer characteristics : BT.709
Matrix coefficients : BT.709

Audio #1
ID : 2
Format : AC-3
Format/Info : Audio Coding 3
Mode extension : CM (complete main)
Format settings, Endianness : Big
Codec ID : A_AC3
Duration : 2h 9mn
Bit rate mode : Constant
Bit rate : 384 Kbps
Channel(s) : 6 channels
Channel positions : Front: L C R, Side: L R, LFE
Sampling rate : 48.0 KHz
Bit depth : 16 bits
Compression mode : Lossy
Stream size : 355 MiB (2%)
Title : MVO
Language : Russian
Default : Yes
Forced : No

Audio #2
ID : 3
Format : DTS
Format/Info : Digital Theater Systems
Format profile : MA / Core
Codec ID : A_DTS
Duration : 2h 9mn
Bit rate mode : Variable
Bit rate : 1 636 Kbps / 1 510 Kbps
Channel(s) : 6 channels
Channel positions : Front: L C R, Side: L R, LFE
Sampling rate : 48.0 KHz
Bit depth : 16 bits
Compression mode : Lossless / Lossy
Title : Original
Language : French
Default : No
Forced : No

Text #1
ID : 4
Format : UTF-8
Codec ID : S_TEXT/UTF8
Codec ID/Info : UTF-8 Plain Text
Title : DVD
Language : Russian
Default : No
Forced : No

Text #2
ID : 5
Format : UTF-8
Codec ID : S_TEXT/UTF8
Codec ID/Info : UTF-8 Plain Text
Title : ENG
Language : English
Default : No
Forced : No

Menu
00:00:00.000 : en:
00:13:00.780 : en:
00:26:27.585 : en:
00:39:44.382 : en:
00:52:44.327 : en:
01:05:21.000 : en:
01:18:14.940 : en:
01:31:56.677 : en:
01:44:08.408 : en:
01:56:33.236 : en:



Скачать Гусар на крыше через торрент http://i2-imageban-ru.translate.goog/out/2014/03/03/c777901cffd305636281dd968962dbff.png Скачать, смотреть онлайн Гусар на крыше бесплантно в хорошем качестве Описание: Действие приключенческой мелодрамы происходит в начале XIX века после падения Наполеона. 25-летний итальянский полковник, ... 8.7 10 3
Info! Золотая раздача, скачанное не засчитывается.
Торрент: Зарегистрирован [2014-03-03 06:05] · скачан: 3 раз
Статус: √ проверено
Размер: 17.67 GB
Как cкачать? Как скачать Гусар на крыше через торрент | UTorrent

% Раздел Тема Автор DL S | L
Фильмы до 2000 г. [ 1.46 GB ] Гусар на крыше / Le hussard sur le toit / The Horseman on the Roof | MVO | BDRip killermax2013 Скачать
1 | 0

28-11-2019 20:33  


Отключить вcю реклaмy на сайте, в т.ч. и в плеере онлайн просмотра!

    Дорогой пользователь! Огромная просьба, поблагодарите релизера, оцените раздачу и оставьте свои комментарий, если Вы скачали Гусар на крыше через торрент бесплатно!!
    Комментировать посты могут только пользователи прошедшие не сложную регистрацию
    Показать сообщения:    


    Гусар на крыше через торрент
    Скачать бесплатно Гусар на крыше
    Гусар на крыше скачать торрент
    Гусар на крыше смотреть онлайн
    Cкачать фильм Гусар на крыше бесплатно
    Гусар на крыше скачать торрент в хорошем качестве
    Гусар на крыше смотреть онлайн бесплатно в хорошем качестве
    Вы не можете начинать темы
    Вы не можете отвечать на сообщения
    Вы не можете редактировать свои сообщения
    Вы не можете удалять свои сообщения
    Вы не можете голосовать в опросах
    Вы не можете прикреплять файлы к сообщениям
    Вы можете скачивать файлы
    Гусар на крыше / Le hussard sur le toit [1995 г., драма, мелодрама, приключения, военный, BD-Remux, Профессиональный многоголосый] смотреть онлайн, скачать торрент picoco.icu