Ссылка на приватное зеркало нашего сайта всего за 1$. Внимание количество ограничено!!!

2 сезон

iTunes

iTunes

1

iTunes

iTunes

iTunes

WEBRip

iTunes

30
pack

Вам бонус

ВАЖНО

!!Акция!!

Alien_RageХит недели

RePack

Horizon Zero Dawn

ИГРА 18+

pack

RePack

jed

!!Акция!!

Alien_Rage

RePack

fifa19

RePack

Assassins Creed: Odyssey

RePack

NEED FOR SPEED™ PAYBACK

4 сезон

9 сезон

Бесстыжие 9 сезон

Все сериалы

все сериалы на PB.wtf

RePack

FAR CRY 5
  

Охотники за сокровищами / Lost City Raiders (Жан Де Сегонзак / Jean de Segonzac) [2008, Германия, фантастика, приключения, HDRip-AVC] MVO piratbit.org

Охотники за сокровищами через торрент piratbit.org

Размер: 1.46 GB | Добавлен: 6 лет 6 мес. назад | Торрент скачан:127 раз
Скачать  

03-03-2014 13:18 Охотники за сокровищами Скачать торрент  

Охотники за сокровищами / Lost City Raiders
Год выпуска: 2008
Страна: Германия, Tandem Communications
Жанр: Фантастика, приключения
Продолжительность: 01:41:41
Перевод: Профессиональный (многоголосый, закадровый)
Русские субтитры: нет

Режиссер: Жан Де Сегонзак / Jean de Segonzac

В ролях: Джеймс Бролин, Йен Сомерхалдер, Беттина Зиммерманн, Джэми Кинг, Элоди Фрэнк, Михаэль Мендль, Джереми Кратчли

Описание: После глобальных катастроф на Земле началось Потепление. За три года растаявшие ледяные покровы подняли уровень воды в Мировом океане на 15 метров, затопив континенты и практически уничтожив цивилизацию. В центре повествования двое братьев — Томас и Джек, которые вместе с отцом промышляют поиском сокровищ в полузатопленых городах. Волей судьбы и по поручению Ватикана им приходится принять участие в поисках легендарного скипетра Собека, Египетского бога воды, который в незапамятные времена дал Моисею Влacть над водной стихией. Ватикан надеется с его помощью остановить второй всемирный потоп. Однако им противостоит русский миллионер Филимонов, вложивший все свои средства в плавучие города…


Качество: HDRip-AVC [Исходник BDRip 720p]
Формат: MKV
Видео кодек: H.264
Аудио кодек: AC3
Видео: 856x482 (16:9), 23.976 fps, H264 ~ 1 666 kbps avg, 0.168 bit/pixel
Аудио: 48 kHz, AC3 Dolby Digital, 3/2 (L,C,R,l,r) + LFE ch, ~384 kbps
Раздача от:
D:Мои рипыНовая папкаOhotniki.za.sokrovischami.2008.HDRip-AVC.dexter_lex.mkv
General
Unique ID : 226559713337040756362239244490191468194 (0xAA71D048CB73BA02A7152BA9983CF6A2)
Complete name : D:Мои рипыНовая папкаOhotniki.za.sokrovischami.2008.HDRip-AVC.dexter_lex.mkv
Format : Matroska
Format version : Version 2
File size : 1.46 GiB
Duration : 1h 41mn
Overall bit rate : 2 051 Kbps
Encoded date : UTC 2014-02-18 07:56:38
Writing application : mkvmerge v6.1.0 ('Old Devil') built on Mar 4 2013 09:10:42
Writing library : libebml v1.3.0 + libmatroska v1.4.0
Video #1
ID : 1
Format : AVC
Format/Info : Advanced Video Codec
Format profile : High@L4.1
Format settings, CABAC : Yes
Format settings, ReFrames : 11 frames
Codec ID : V_MPEG4/ISO/AVC
Duration : 1h 41mn
Bit rate : 1 666 Kbps
Width : 856 pixels
Height : 482 pixels
Display aspect ratio : 16:9
Frame rate : 23.976 fps
Color space : YUV
Chroma subsampling : 4:2:0
Bit depth : 8 bits
Scan type : Progressive
Bits/(Pixel*Frame) : 0.168
Stream size : 1.15 GiB (79%)
Writing library : x264 core 130 r2273 b3065e6
Encoding settings : cabac=1 / ref=11 / deblock=1:-2:-2 / analyse=0x3:0x113 / me=umh / subme=10 / psy=1 / psy_rd=1.00:0.15 / mixed_ref=1 / me_range=48 / chroma_me=1 / trellis=2 / 8x8dct=1 / cqm=0 / deadzone=21,11 / fast_pskip=0 / chroma_qp_offset=-3 / threads=6 / lookahead_threads=1 / sliced_threads=0 / nr=0 / decimate=1 / interlaced=0 / bluray_compat=0 / constrained_intra=0 / bframes=9 / b_pyramid=2 / b_adapt=2 / b_bias=0 / direct=3 / weightb=1 / open_gop=0 / weightp=2 / keyint=240 / keyint_min=23 / scenecut=40 / intra_refresh=0 / rc_lookahead=60 / rc=2pass / mbtree=1 / bitrate=1666 / ratetol=1.0 / qcomp=0.60 / qpmin=0 / qpmax=69 / qpstep=4 / cplxblur=20.0 / qblur=0.5 / ip_ratio=1.40 / aq=1:1.00
Default : Yes
Forced : No
Audio #2
ID : 2
Format : AC-3
Format/Info : Audio Coding 3
Mode extension : CM (complete main)
Codec ID : A_AC3
Duration : 1h 41mn
Bit rate mode : Constant
Bit rate : 384 Kbps
Channel(s) : 6 channels
Channel positions : Front: L C R, Side: L R, LFE
Sampling rate : 48.0 KHz
Bit depth : 16 bits
Compression mode : Lossy
Stream size : 279 MiB (19%)
Default : Yes
Forced : No
piratbit.org



Скачать Охотники за сокровищами через торрент http://i33.fastpic.ru/big/2014/0303/2f/9733946360bf19200c995a14a870062f.jpg Скачать фильм Охотники за сокровищами через торрент бесплантно в хорошем качестве Описание: После глобальных катастроф на Земле началось Потепление. За три года растаявшие ледяные покровы подняли уровень воды в Мировом ... 10 10 5
Торрент: Зарегистрирован [2014-03-03 13:18] · скачан: 127 раз
Статус: √ проверено
Размер: 1.46 GB
Как cкачать? Как скачать Охотники за сокровищами через торрент | qTorrent

% Раздел Тема Автор DL S | L
Фильмы 2006-2008 [ 748 MB ] Охотники за сокровищами / Lost City Raiders [2008 Германия HDRip] MVO dexter lex Скачать
1 | 0
Фильмы 2006-2008 [ 1.46 GB ] Охотники за сокровищами / Lost City Raiders [2008 Германия HDRip] MVO dexter lex Скачать
1 | 0

28-11-2019 20:33  

Отключить всю рекламу на сайте

    Дорогой пользователь! Огромная просьба, поблагодарите релизера, оцените раздачу и оставьте свои комментарий, если Вы скачали Охотники за сокровищами через торрент бесплатно! Внесите свою лепту в развитие PiratBit!
    Комментировать посты могут только пользователи прошедшие не сложную регистрацию
    Показать сообщения:    

    Охотники за сокровищами через торрент
    Скачать бесплатно Охотники за сокровищами
    Охотники за сокровищами скачать торрент
    Охотники за сокровищами смотреть онлайн
    Cкачать фильм Охотники за сокровищами бесплатно
    Охотники за сокровищами скачать торрент в хорошем качестве
    Охотники за сокровищами смотреть онлайн бесплатно в хорошем качестве


    Вы не можете начинать темы
    Вы не можете отвечать на сообщения
    Вы не можете редактировать свои сообщения
    Вы не можете удалять свои сообщения
    Вы не можете голосовать в опросах
    Вы не можете прикреплять файлы к сообщениям
    Вы можете скачивать файлы