Ссылка на приватное зеркало нашего сайта всего за 1$. Внимание количество ограничено!!!

2 сезон

iTunes

iTunes

1

iTunes

iTunes

iTunes

WEBRip

iTunes

30
pack

Забери бонус

ВАЖНО

!!Акция!!

Alien_RageХит недели

RePack

RESIDENT EVIL 3: NEMESIS REMAKE

ИГРА 18+

pack

RePack

jed

!!Акция!!

Alien_Rage

RePack

fifa19

RePack

Assassins Creed: Odyssey

RePack

NEED FOR SPEED™ PAYBACK

4 сезон

9 сезон

Бесстыжие 9 сезон

Все сериалы

все сериалы на PB.wtf

RePack

FAR CRY 5
  

Охотники за сокровищами / Lost City Raiders (Жан Де Сегонзак / Jean de Segonzac) [2008, Германия, фантастика, приключения, HDRip] MVO piratbit.org

Охотники за сокровищами через торрент piratbit.org

Размер: 1.46 GB | Добавлен: 6 лет 6 мес. назад | Торрент скачан:140 раз
Скачать  

03-03-2014 13:19 Охотники за сокровищами Скачать торрент  

Охотники за сокровищами / Lost City Raiders
Год выпуска: 2008
Страна: Германия, Tandem Communications
Жанр: Фантастика, приключения
Продолжительность: 01:41:41
Перевод: Профессиональный (многоголосый, закадровый)
Русские субтитры: нет

Режиссер: Жан Де Сегонзак / Jean de Segonzac

В ролях: Джеймс Бролин, Йен Сомерхалдер, Беттина Зиммерманн, Джэми Кинг, Элоди Фрэнк, Михаэль Мендль, Джереми Кратчли

Описание: После глобальных катастроф на Земле началось Потепление. За три года растаявшие ледяные покровы подняли уровень воды в Мировом океане на 15 метров, затопив континенты и практически уничтожив цивилизацию. В центре повествования двое братьев — Томас и Джек, которые вместе с отцом промышляют поиском сокровищ в полузатопленых городах. Волей судьбы и по поручению Ватикана им приходится принять участие в поисках легендарного скипетра Собека, Египетского бога воды, который в незапамятные времена дал Моисею Влacть над водной стихией. Ватикан надеется с его помощью остановить второй всемирный потоп. Однако им противостоит русский миллионер Филимонов, вложивший все свои средства в плавучие города…


Качество: HDRip [Исходник BDRip 720p]
Формат: AVI
Видео кодек: XviD
Аудио кодек: AC3
Видео: 688x384 (1.79:1), 23.976 fps, XviD build 73 ~1662 kbps avg, 0.26 bit/pixel
Аудио: 48 kHz, AC3 Dolby Digital, 3/2 (L,C,R,l,r) + LFE ch, ~384 kbps
Раздача от:
D:Мои рипыНовая папкаOhotniki.za.sokrovischami.2008.HDRip.dexter_lex.avi
General
Complete name : D:Мои рипыНовая папкаOhotniki.za.sokrovischami.2008.HDRip.dexter_lex.avi
Format : AVI
Format/Info : Audio Video Interleave
File size : 1.46 GiB
Duration : 1h 41mn
Overall bit rate : 2 056 Kbps
Writing application : VirtualDubMod 1.5.10.3 | www.virtualdub-fr.org || (build 2550/release)
Writing library : VirtualDubMod build 2550/release
Video #0
ID : 0
Format : MPEG-4 Visual
Format profile : Advanced Simple@L5
Format settings, BVOP : 1
Format settings, QPel : No
Format settings, GMC : No warppoints
Format settings, Matrix : Custom
Codec ID : XVID
Codec ID/Hint : XviD
Duration : 1h 41mn
Bit rate : 1 662 Kbps
Width : 688 pixels
Height : 384 pixels
Display aspect ratio : 16:9
Frame rate : 23.976 fps
Color space : YUV
Chroma subsampling : 4:2:0
Bit depth : 8 bits
Scan type : Progressive
Compression mode : Lossy
Bits/(Pixel*Frame) : 0.262
Stream size : 1.18 GiB (81%)
Writing library : XviD 73
Audio #1
ID : 1
Format : AC-3
Format/Info : Audio Coding 3
Mode extension : CM (complete main)
Codec ID : 2000
Duration : 1h 41mn
Bit rate mode : Constant
Bit rate : 384 Kbps
Channel(s) : 6 channels
Channel positions : Front: L C R, Side: L R, LFE
Sampling rate : 48.0 KHz
Bit depth : 16 bits
Compression mode : Lossy
Stream size : 279 MiB (19%)
Alignment : Split accross interleaves
Interleave, duration : 42 ms (1.00 video frame)
Interleave, preload duration : 500 ms
piratbit.org



Скачать Охотники за сокровищами через торрент http://i33.fastpic.ru/big/2014/0303/2f/9733946360bf19200c995a14a870062f.jpg Скачать фильм Охотники за сокровищами через торрент бесплантно в хорошем качестве Описание: После глобальных катастроф на Земле началось Потепление. За три года растаявшие ледяные покровы подняли уровень воды в Мировом ... 10 10 4
Торрент: Зарегистрирован [2014-03-03 13:19] · скачан: 140 раз
Статус: √ проверено
Размер: 1.46 GB
Как cкачать? Как скачать Охотники за сокровищами через торрент | qTorrent

% Раздел Тема Автор DL S | L
Фильмы 2006-2008 [ 748 MB ] Охотники за сокровищами / Lost City Raiders [2008 Германия HDRip] MVO dexter lex Скачать
1 | 0
Фильмы 2006-2008 [ 1.46 GB ] Охотники за сокровищами / Lost City Raiders [2008 Германия HDRip-AVC] MVO dexter lex Скачать
1 | 0

28-11-2019 20:33  

Отключить всю рекламу на сайте

    Дорогой пользователь! Огромная просьба, поблагодарите релизера, оцените раздачу и оставьте свои комментарий, если Вы скачали Охотники за сокровищами через торрент бесплатно! Внесите свою лепту в развитие PiratBit!
    Комментировать посты могут только пользователи прошедшие не сложную регистрацию
    Показать сообщения:    

    Охотники за сокровищами через торрент
    Скачать бесплатно Охотники за сокровищами
    Охотники за сокровищами скачать торрент
    Охотники за сокровищами смотреть онлайн
    Cкачать фильм Охотники за сокровищами бесплатно
    Охотники за сокровищами скачать торрент в хорошем качестве
    Охотники за сокровищами смотреть онлайн бесплатно в хорошем качестве


    Вы не можете начинать темы
    Вы не можете отвечать на сообщения
    Вы не можете редактировать свои сообщения
    Вы не можете удалять свои сообщения
    Вы не можете голосовать в опросах
    Вы не можете прикреплять файлы к сообщениям
    Вы можете скачивать файлы