Доктор Стрэндж

Лицензия

Добыча

Дубляж

Дом дракона

1 сезон

Тор

Дубляж

В эфире

Дубляж

Там, где раки поют

MVO

Властелин колец

1 сезон

Ultimate

pack

Рекомендуем

30

Пиратка

ВАЖНО

ВАЖНО

Ghostwire

Пиратка

jed

RePack

nioh2

RePack

RDR2

RePack

NEED FOR SPEED™ PAYBACK

RePack

скачать торрент

Кинопоиск HD

Острые козырьки 6 сезон

6 сезон

FAR CRY 6

RePack

скачать торрент

Лицензия

скачать торрент

MVO

1

1 сезон

скачать торрент

1 сезон

скачать торрент

Лицензия

  

Убей своих любимых / Kill Your Darlings (Джон Крокидас / John Krokidas) [2013, США, драма, мелодрама, BDRip 1080p ,Любительский (одноголосый) [Василий Кошкин]

Убей своих любимых через торрент piratbit.org

Размер: 8.4 GB | Добавлен: 8 лет 8 мес. назад | Торрент скачан:33 раза
Смотреть онлайн | Скачать   

05-03-2014 20:40 Убей своих любимых Скачать торрент  

Название: Убей своих любимых
Оригинальное название: Kill Your Darlings
Год выпуска: 2013
Выпущено: США
Продолжительность: 01:42:44
Озвучивание: Любительское (одноголосое) [Василий Кошкин]
Субтитры: Russian [notabenoid], English
Жанр: драма, мелодрама
Режиссёр: Джон Крокидас
В ролях: Дэниэл Рэдклифф, Дэйн ДеХаан, Бен Фостер, Майкл С. Холл, Джек Хьюстон, Дженнифер Джейсон Ли, Элизабет Олсен, Дэвид Кросс, Джон Каллам, Бренда Веле

Описание:
В фильме рассказывается о том, как произошедшее в 1944 году в Колумбийском университете убийство одного из студентов свело вместе молодых писателей Аллена Гинзберга , Джека Керуака и Уильяма Берроуза, которым впоследствии суждено было стать движущей силой бит-поколения. Они хорошо знали как погибшего Карра, так и убившего его Камеррера, а некоторое время спустя Берроуз и Керуак описали произошедшее в своём романе «И бегемоты сварились в своих бассейнах».



Файл

Качество: BDRip 1080p [HDWing]
Формат: MKV
Видео кодек: AVC
Аудио кодек: AC3/DTS
Видео: 10000 kb/s, 1920х800, 23,976 кадра/сек
Аудио: Russian: AC3, 192 kb/s (2 ch) 48,0 КГц
Аудио: English: DTS, 1510 kb/s (6 ch)48,0 КГц
Дополнительно: Сохранены оригинальные чаптеры как на Blu-Ray

Скачать: Сэмпл

Релиз группы:

Общее
Kill.Your.Darlings.2013.Blu.Ray.1080p.CINEMANIA.mkv
Формат : Matroska
Версия формата : Version 4 / Version 2
Размер файла : 8,40 Гбайт
Продолжительность : 1 ч. 42 м.
Общий поток : 11,7 Мбит/сек
Название фильма : Release Group CINEMANIA
Дата кодирования : UTC 2014-03-05 12:36:24
Программа кодирования : mkvmerge v6.8.0 ('Theme for Great Cities') 64bit built on Mar 2 2014 21:34:26
Библиотека кодирования : libebml v1.3.0 + libmatroska v1.4.1

Видео
Идентификатор : 1
Формат : AVC
Формат/Информация : Advanced Video Codec
Профиль формата : High@L4.1
Параметр CABAC формата : Да
Параметр ReFrames формата : 5 кадров
Идентификатор кодека : V_MPEG4/ISO/AVC
Продолжительность : 1 ч. 42 м.
Битрейт : 10000 Кбит/сек
Ширина : 1920 пикселей
Высота : 800 пикселей
Соотношение сторон : 2,40:1
Режим частоты кадров : Постоянный
Частота кадров : 23,976 кадра/сек
Цветовое пространство : YUV
Субдискретизация насыщенности : 4:2:0
Битовая глубина : 8 бит
Тип развёртки : Прогрессивная
Бит/(Пиксели*Кадры) : 0.272
Размер потока : 7,01 Гбайт (83%)
Заголовок : Release Group CINEMANIA
Библиотека кодирования : x264 core 138 r2358 9e941d1
Настройки программы : cabac=1 / ref=5 / deblock=1:-3:-3 / analyse=0x3:0x113 / me=umh / subme=11 / psy=1 / psy_rd=1.00:0.00 / mixed_ref=1 / me_range=64 / chroma_me=1 / trellis=2 / 8x8dct=1 / cqm=0 / deadzone=21,11 / fast_pskip=0 / chroma_qp_offset=-2 / threads=48 / lookahead_threads=4 / sliced_threads=0 / nr=0 / decimate=0 / interlaced=0 / bluray_compat=0 / constrained_intra=0 / bframes=8 / b_pyramid=2 / b_adapt=2 / b_bias=0 / direct=3 / weightb=1 / open_gop=0 / weightp=2 / keyint=360 / keyint_min=2 / scenecut=40 / intra_refresh=0 / rc_lookahead=60 / rc=2pass / mbtree=1 / bitrate=10000 / ratetol=1.0 / qcomp=0.70 / qpmin=0 / qpmax=69 / qpstep=4 / cplxblur=20.0 / qblur=0.5 / vbv_maxrate=50000 / vbv_bufsize=45000 / nal_hrd=none / ip_ratio=1.10 / aq=1:0.80
Default : Да
Forced : Нет

Аудио #1
Идентификатор : 2
Формат : AC-3
Формат/Информация : Audio Coding 3
Расширение режима : CM (complete main)
Параметр Endianness формата : Big
Идентификатор кодека : A_AC3
Продолжительность : 1 ч. 42 м.
Вид битрейта : Постоянный
Битрейт : 192 Кбит/сек
Каналы : 2 канала
Расположение каналов : Front: L R
Частота : 48,0 КГц
Битовая глубина : 16 бит
Метод сжатия : С потерями
Размер потока : 141 Мбайт (2%)
Заголовок : В.Кошкин
Язык : Russian
Default : Да
Forced : Да

Аудио #2
Идентификатор : 3
Формат : DTS
Формат/Информация : Digital Theater Systems
Режим : 16
Параметр Endianness формата : Big
Идентификатор кодека : A_DTS
Продолжительность : 1 ч. 42 м.
Вид битрейта : Постоянный
Битрейт : 1509 Кбит/сек
Каналы : 6 каналов
Расположение каналов : Front: L C R, Side: L R, LFE
Частота : 48,0 КГц
Битовая глубина : 24 бит
Метод сжатия : С потерями
Размер потока : 1,08 Гбайт (13%)
Язык : English
Default : Нет
Forced : Нет

Текст #1
Идентификатор : 4
Формат : UTF-8
Идентификатор кодека : S_TEXT/UTF8
Идентификатор кодека/Информация : UTF-8 Plain Text
Заголовок : notabenoid
Язык : Russian
Default : Нет
Forced : Нет

Текст #2
Идентификатор : 5
Формат : UTF-8
Идентификатор кодека : S_TEXT/UTF8
Идентификатор кодека/Информация : UTF-8 Plain Text
Язык : English
Default : Нет
Forced : Нет

Меню
00:00:00.000 : en:00:00:00.000
00:05:39.339 : en:00:05:39.339
00:09:11.926 : en:00:09:11.926
00:13:45.992 : en:00:13:45.992
00:23:31.118 : en:00:23:31.118
00:28:50.354 : en:00:28:50.354
00:36:31.272 : en:00:36:31.272
00:42:13.781 : en:00:42:13.781
00:45:57.838 : en:00:45:57.838
00:54:10.622 : en:00:54:10.622
00:57:41.583 : en:00:57:41.583
01:03:23.508 : en:01:03:23.508
01:08:16.509 : en:01:08:16.509
01:12:17.583 : en:01:12:17.583
01:20:11.807 : en:01:20:11.807
01:28:02.319 : en:01:28:02.319



Скачать Убей своих любимых через торрент http://6.firepic.org/6/images/2014-03/05/f7zonfpg9zb1.jpg Скачать, смотреть онлайн Убей своих любимых бесплантно в хорошем качестве Описание: В фильме рассказывается о том, как произошедшее в 1944 году в Колумбийском университете убийство одного из студентов свело вместе ... 10 10 4
Торрент: Зарегистрирован [2014-03-05 20:40] · скачан: 33 раз
Статус: √ проверено
Размер: 8.4 GB
Как cкачать? Как скачать Убей своих любимых через торрент | UTorrent

% Раздел Тема Автор DL S | L
Фильмы 2013 [DVDrip, WEB-DLRip, HDrip] [ 1.37 GB ] Убей своих любимых / Kill Your Darlings | Лицензия | HDRip MVO [Лицензия Ворон Скачать
1 | 0
Фильмы 2013 [DVDrip, WEB-DLRip, HDrip] [ 748 MB ] Убей своих любимых / Kill Your Darlings | MVO | BDRip-AVC sokol_ok Скачать
2 | 0
Фильмы 2013 [DVDrip, WEB-DLRip, HDrip] [ 1.46 GB ] Убей своих любимых / Kill Your Darlings | MVO | BDRip-AVC sokol_ok Скачать
2 | 0
Фильмы (DVD фильмы) [ 5.35 GB ] Убей своих любимых / Kill Your Darlings | | 2013, драма, мелодрама, DVD9 voovaz Скачать
1 | 0
Фильмы [HD 720p, 1080p] (Хороший звук DUB, MVO) [ 6.03 GB ] Убей своих любимых / Kill Your Darlings | Лицензия | 720p MVO [Лицензия Ворон Скачать
1 | 0
T Фильмы 2013 (Звук TS, Cam, VO, DVO) [ 1.37 GB ] Убей своих любимых / Kill Your Darlings | | HDRip,Любительский (одноголосый Ворон Скачать
1 | 0

28-11-2019 20:33  


Отключить вcю реклaмy на сайте, в т.ч. и в плеере онлайн просмотра!

    Дорогой пользователь! Огромная просьба, поблагодарите релизера, оцените раздачу и оставьте свои комментарий, если Вы скачали Убей своих любимых через торрент бесплатно!!
    Комментировать посты могут только пользователи прошедшие не сложную регистрацию
    Показать сообщения:    


    Убей своих любимых через торрент
    Скачать бесплатно Убей своих любимых
    Убей своих любимых скачать торрент
    Убей своих любимых смотреть онлайн
    Cкачать фильм Убей своих любимых бесплатно
    Убей своих любимых скачать торрент в хорошем качестве
    Убей своих любимых смотреть онлайн бесплатно в хорошем качестве
    Вы не можете начинать темы
    Вы не можете отвечать на сообщения
    Вы не можете редактировать свои сообщения
    Вы не можете удалять свои сообщения
    Вы не можете голосовать в опросах
    Вы не можете прикреплять файлы к сообщениям
    Вы можете скачивать файлы
    Убей своих любимых / Kill Your Darlings [2013, США, драма, мелодрама, BDRip 1080p ,Любительский [Василий Кошкин] смотреть онлайн, скачать торрент picoco.icu