Достать ножи: Стеклянная луковица

MVO

Добыча

Дубляж

Уэнсдэй

1 сезон

Тор

Дубляж

13 клиническая

1 сезон

Жестокая ночь

MVO

Одни из нас

1 сезон

Deluxe

pack

Рекомендуем

30

Пиратка

ВАЖНО

ВАЖНО

Ghostwire

Пиратка

jed

RePack

nioh2

RePack

RDR2

RePack

NEED FOR SPEED™ PAYBACK

RePack

скачать торрент

Кинопоиск HD

Острые козырьки 6 сезон

6 сезон

FAR CRY 6

RePack

скачать торрент

Лицензия

скачать торрент

MVO

1

1 сезон

скачать торрент

1 сезон

скачать торрент

Лицензия

  

Повелитель зверей / The Beastmaster (Дон Коскарелли) (1982, Фэнтези, приключения, боевик, BDRemux 1080p, AVO)

Повелитель зверей через торрент piratbit.org

Размер: 22.71 GB | Добавлен: 8 лет 11 мес. назад | Торрент скачан:23 раза
Смотреть онлайн | Скачать | Поддержите нас   

06-03-2014 12:49 Повелитель зверей Скачать торрент  

Название: Повелитель зверей
Оригинальное название: The Beastmaster
Год выпуска: 1982
Жанр: Фэнтези, приключения, боевик

Режиссер: Дон Коскарелли

В ролях: Марк Сингер, Таня Робертс, Рип Торн, Джон Эймос, Род Лумис, Джош Милрод, Бен Хаммер, Ральф Стрейт, Билли Джэйн, Джанет ДеМэй, Крис Келлогг, Джанет Джонс, Тони Эппер, Мик Тибодо, Пол Рейнольдс, Монти Л. Саймонс, Брюс Пол Барбо, Даймонд Фарнсворт, Линда Смит, Ларри Рэндлс, Джереми Вилан, Билли Хэнк Хукер, Джордж Скотт, Томми Дж. Хафф, Ричард Хэмпфри, Хью Армстронг, Майк Киртон, Эдди Донно, Гари МакЛарти, Фесс Рейнольдс, Чарльз Хикс

Описание: Фантастические приключения в стиле тарзаниады и фильмов про Конана-варвара. В некотором древнем царстве, в тридесятом государстве жил-был добрый король. Народ любил короля. И был страшный-престрашный колдун, хобби которого было проиносить человеческие жертвы. И народ боялся колдуна... И вот как-то прознал король про неприглядные дела этого самого колдуна и приказал запереть его в кутузку. Но у колдуна была банда, при помощи которой (и, конечно же, колдовства) он сбежал. Наслав заклятие на короля и его беременную супругу, он перенёс будущего принца из чрева матери-в чрево коровы. Родившийся таким необычным образом принц должен был достаться в жертву обожаемому колдуном дьяволу. Уродливое создание - творение колдуна по заказу последнего успевает заклеймить жертву, но не успевает его убить, так как появляется ещё один персонаж-вольный дровосек, который убивает чудище. Догадывался или не догадывался дровосек, чьим отпрыском является спасённый младенец - не известно, но вырастил он его как своего сына, настоящим мужчиной. Прошло много лет, но юноша ещё не достиг совершеннолетия, а колдун вместе со своими хулиганами (по причине личной зловредности)уничтожает селение и приёмного отца принца. Юноша не знал о своём происхождении и, потеряв отца, друзей и всего родного и близкого, отправляется в странствие с желанием отомстить. В пути он находит друзей из числа зверей, с которыми может общаться и понимать друг друга, а также из числа людей, таких же гонимых, как и он сам. Вместе они переживают невероятные приключения, но заканчивается всё благополучно...



Страна: США
Студия: United Artists, MGM
Продолжительность: 01:58:27
Перевод: Авторский одноголосый

Качество: Blu-ray Remux 1080p
Формат: MKV
Видео кодек: AVC
Аудио кодек: AC3
Видео: MPEG-4 AVC, 23998 Кбит/с, 1920x1080, 23.976 кадр/с
Аудио #1: Русский (AC3, 2 ch, 192 Кбит/с, 48,0 КГц) / Авторский одноголосый (Марченко)
Аудио #2: Русский (AC3, 2 ch, 192 Кбит/с, 48,0 КГц) / Авторский одноголосый (Дохалов)
Аудио #3: Русский (AC3, 2 ch, 192 Кбит/с, 48,0 КГц) / Авторский одноголосый (Сербин)
Аудио #4: Английский (DTS-HD MA, 6 ch, 2950 Кбит/с, 48,0 КГц)
Общее
Уникальный идентификатор : 228046955633908210795207721186337072169 (0xAB903EFDAB0D51C3BF8165E46ABDA429)
Полное имя : D:Mои раздачиPovelitelj.zverey.1982.BDRemux.1080p-MediaClub.mkv
Формат : Matroska
Версия формата : Version 4 / Version 2
Размер файла : 22,7 Гбайт
Продолжительность : 1 ч. 58 м.
Режим общего битрейта : Переменный
Общий поток : 27,4 Мбит/сек
Название фильма : -=MediaClub-kaspr=-
Дата кодирования : UTC 2014-03-05 18:20:34
Программа кодирования : mkvmerge v6.8.0 ('Theme for Great Cities') 64bit built on Mar 2 2014 21:34:26
Библиотека кодирования : libebml v1.3.0 + libmatroska v1.4.1

Видео
Идентификатор : 1
Формат : AVC
Формат/Информация : Advanced Video Codec
Профиль формата : High@L4.1
Параметр CABAC формата : Да
Параметр ReFrames формата : 4 кадра
Идентификатор кодека : V_MPEG4/ISO/AVC
Продолжительность : 1 ч. 58 м.
Вид битрейта : Переменный
Максимальный битрейт : 37,0 Мбит/сек
Ширина : 1920 пикселей
Высота : 1080 пикселей
Соотношение сторон : 16:9
Режим частоты кадров : Постоянный
Частота кадров : 23,976 кадра/сек
Цветовое пространство : YUV
Субдискретизация насыщенности : 4:2:0
Битовая глубина : 8 бит
Тип развёртки : Прогрессивная
Заголовок : -=MediaClub-kaspr=-
Default : Да
Forced : Нет

Аудио #1
Идентификатор : 2
Формат : AC-3
Формат/Информация : Audio Coding 3
Расширение режима : CM (complete main)
Параметр Endianness формата : Big
Идентификатор кодека : A_AC3
Продолжительность : 1 ч. 58 м.
Вид битрейта : Постоянный
Битрейт : 192 Кбит/сек
Каналы : 2 канала
Расположение каналов : Front: L R
Частота : 48,0 КГц
Битовая глубина : 16 бит
Метод сжатия : С потерями
Размер потока : 163 Мбайт (1%)
Заголовок : Марченко
Язык : Russian
Default : Да
Forced : Да

Аудио #2
Идентификатор : 3
Формат : AC-3
Формат/Информация : Audio Coding 3
Расширение режима : CM (complete main)
Параметр Endianness формата : Big
Идентификатор кодека : A_AC3
Продолжительность : 1 ч. 58 м.
Вид битрейта : Постоянный
Битрейт : 192 Кбит/сек
Каналы : 2 канала
Расположение каналов : Front: L R
Частота : 48,0 КГц
Битовая глубина : 16 бит
Метод сжатия : С потерями
Размер потока : 163 Мбайт (1%)
Заголовок : Дохалов
Язык : Russian
Default : Нет
Forced : Нет

Аудио #3
Идентификатор : 4
Формат : AC-3
Формат/Информация : Audio Coding 3
Расширение режима : CM (complete main)
Параметр Endianness формата : Big
Идентификатор кодека : A_AC3
Продолжительность : 1 ч. 58 м.
Вид битрейта : Постоянный
Битрейт : 192 Кбит/сек
Каналы : 2 канала
Расположение каналов : Front: L R
Частота : 48,0 КГц
Битовая глубина : 16 бит
Метод сжатия : С потерями
Размер потока : 163 Мбайт (1%)
Заголовок : Сербин
Язык : Russian
Default : Нет
Forced : Нет

Аудио #4
Идентификатор : 5
Формат : DTS
Формат/Информация : Digital Theater Systems
Профиль формата : MA / Core
Режим : 16
Параметр Endianness формата : Big
Идентификатор кодека : A_DTS
Продолжительность : 1 ч. 58 м.
Вид битрейта : Переменный
Битрейт : Неизвестно / 1509 Кбит/сек
Каналы : 6 каналов
Расположение каналов : Front: L C R, Side: L R, LFE
Частота : 48,0 КГц
Битовая глубина : 24 бит
Метод сжатия : Без потерь / Lossy
Язык : English
Default : Нет
Forced : Нет

Меню
00:00:00.000 : en:Chapter 01
00:01:38.056 : en:Chapter 02
00:16:22.147 : en:Chapter 03
00:29:23.762 : en:Chapter 04
00:39:43.839 : en:Chapter 05
00:49:28.632 : en:Chapter 06
00:55:43.757 : en:Chapter 07
01:01:40.697 : en:Chapter 08
01:12:19.335 : en:Chapter 09
01:24:21.014 : en:Chapter 10
01:33:37.695 : en:Chapter 11
01:41:53.690 : en:Chapter 12
01:55:32.425 : en:Chapter 13



Скачать Повелитель зверей через торрент http://s9.image1.org/images/2014/03/06/1/2c92d1b286235bfbe6a859740b79cfe8.jpg Скачать, смотреть онлайн Повелитель зверей бесплантно в хорошем качестве Описание: Фантастические приключения в стиле тарзаниады и фильмов про Конана-варвара. В некотором древнем царстве, в тридесятом ... 10 10 2
Info! Золотая раздача, скачанное не засчитывается.
Торрент: Зарегистрирован [2014-03-06 12:49] · скачан: 23 раз
Статус: √ проверено
Размер: 22.71 GB
Как cкачать? Как скачать Повелитель зверей через торрент | UTorrent

28-11-2019 20:33  


Отключить вcю реклaмy на сайте, в т.ч. и в плеере онлайн просмотра!

    Дорогой пользователь! Огромная просьба, поблагодарите релизера, оцените раздачу и оставьте свои комментарий, если Вы скачали Повелитель зверей через торрент бесплатно!!
    Комментировать посты могут только пользователи прошедшие не сложную регистрацию
    Показать сообщения:    


    Повелитель зверей через торрент
    Скачать бесплатно Повелитель зверей
    Повелитель зверей скачать торрент
    Повелитель зверей смотреть онлайн
    Cкачать фильм Повелитель зверей бесплатно
    Повелитель зверей скачать торрент в хорошем качестве
    Повелитель зверей смотреть онлайн бесплатно в хорошем качестве
    Вы не можете начинать темы
    Вы не можете отвечать на сообщения
    Вы не можете редактировать свои сообщения
    Вы не можете удалять свои сообщения
    Вы не можете голосовать в опросах
    Вы не можете прикреплять файлы к сообщениям
    Вы можете скачивать файлы
    Повелитель зверей / The Beastmaster смотреть онлайн, скачать торрент picoco.icu