Достать ножи: Стеклянная луковица

MVO

Добыча

Дубляж

Уэнсдэй

1 сезон

Тор

Дубляж

13 клиническая

1 сезон

Жестокая ночь

MVO

Одни из нас

1 сезон

Deluxe

pack

Рекомендуем

30

Пиратка

ВАЖНО

ВАЖНО

Ghostwire

Пиратка

jed

RePack

nioh2

RePack

RDR2

RePack

NEED FOR SPEED™ PAYBACK

RePack

скачать торрент

Кинопоиск HD

Острые козырьки 6 сезон

6 сезон

FAR CRY 6

RePack

скачать торрент

Лицензия

скачать торрент

MVO

1

1 сезон

скачать торрент

1 сезон

скачать торрент

Лицензия

  

Голодные игры: И вспыхнет пламя [IMAX Edition] / The Hunger Games: Catching Fire (Френсис Лоуренс / Francis Lawrence) [2013, США, фантастика, боевик, триллер, Blu-Ray Remux (1080p), Дубляж, Лицензия / IMAX Edition

Голодные игры: И вспыхнет пламя через торрент piratbit.org

Размер: 29.19 GB | Добавлен: 8 лет 6 мес. назад | Торрент скачан:173 раза
Смотреть онлайн | Скачать | Поддержите нас   

07-03-2014 08:58 Голодные игры: И вспыхнет пламя Скачать торрент  

Голодные игры: И вспыхнет пламя / The Hunger Games: Catching Fire

Год выпуска: 2013
Страна: США
Жанр: фантастика, боевик, триллер, приключения
Продолжительность: 02:26:14
Перевод: Дубляж, Лицензия
Оригинальная аудиодорожка: English
Субтитры: Русские, английские
Студия: Color Force, Lionsgate

Режиссёр: Френсис Лоуренс / Francis Lawrence

В ролях: Дженнифер Лоуренс, Джош Хатчерсон, Сэм Клафлин, Джена Мэлоун, Вуди Харрельсон, Элизабет Бэнкс, Лиам Хемсворт, Дональд Сазерленд, Филип Сеймур Хоффман, Стэнли Туччи и др.

Описание: Сумев выжить на безжалостных Голодных играх, Китнисс Эвердин и Пит Мелларк возвращаются домой. Но теперь они в ещё большей опасности, так как своим отказом по правилам на Арене бросили вызов Капитолию. По традиции следующие, юбилейные, Голодные игры должны стать особенными, и в этот раз в них участвуют только победители прошлых . Китнисс и Пит вынуждены вновь выйти на Арену, где будут соперничать с сильнейшими. Правила игры меняются. Арена еще опасней, масштаб ещё больше, ещё выше!



Качество: Blu-Ray Remux (1080p)
Контейнер: MKV
Видео кодек: MPEG-4 AVC Video
Аудио кодек: DTS-HD MA / AC3
Видео: MPEG-4 AVC Video / 20504 kbps / 1920x1080p / 23,976 fps / 16:9 / High Profile 4.1
Аудио 1: Russian / DTS-HD MA, 6 ch, 2029 Кбит/с / Дублированный
Аудио 2: Russian / АС3, 6 ch, 640 Кбит/с / Дублированный
Аудио 3: English / DTS-HD MA, 8 ch, 5019 Кбит/с / Оригинал
Аудио 4: English / АС3, 2 ch, 224 Кбит/с / Оригинал
Навигация по главам: да
скриншот   скриншот   скриншот  
Общее
Уникальный идентификатор : 244888240496130643239974472843721715556 (0xB83BC271364E80DBAF4307D421882F64)
Полное имя : K:The.Hunger.Games.Catching.Fire.2013.MPEG-4.BD-Remux.(1080p).mkv
Формат : Matroska
Версия формата : Version 4 / Version 2
Размер файла : 29,2 Гбайт
Продолжительность : 2 ч. 26 м.
Режим общего битрейта : Переменный
Общий поток : 28,6 Мбит/сек
Название фильма : The Hunger Games Catching Fire 2013 IMAX Edition BDRip 720p GORESEWAGE
Дата кодирования : UTC 2014-03-08 17:45:23
Программа кодирования : mkvmerge v6.8.0 ('Theme for Great Cities') 32bit built on Mar 2 2014 21:27:07
Библиотека кодирования : libebml v1.3.0 + libmatroska v1.4.1
Attachment : Yes

Видео
Идентификатор : 1
Формат : AVC
Формат/Информация : Advanced Video Codec
Профиль формата : High@L4.1
Параметр CABAC формата : Да
Параметр ReFrames формата : 4 кадра
Идентификатор кодека : V_MPEG4/ISO/AVC
Продолжительность : 2 ч. 26 м.
Вид битрейта : Переменный
Максимальный битрейт : 37,0 Мбит/сек
Ширина : 1920 пикселей
Высота : 1080 пикселей
Соотношение сторон : 16:9
Режим частоты кадров : Постоянный
Частота кадров : 23,976 кадра/сек
Цветовое пространство : YUV
Субдискретизация насыщенности : 4:2:0
Битовая глубина : 8 бит
Тип развёртки : Прогрессивная
Язык : English
Default : Да
Forced : Нет

Аудио #1
Идентификатор : 2
Формат : AC-3
Формат/Информация : Audio Coding 3
Расширение режима : CM (complete main)
Параметр Endianness формата : Big
Идентификатор кодека : A_AC3
Продолжительность : 2 ч. 26 м.
Вид битрейта : Постоянный
Битрейт : 640 Кбит/сек
Каналы : 6 каналов
Расположение каналов : Front: L C R, Side: L R, LFE
Частота : 48,0 КГц
Битовая глубина : 16 бит
Метод сжатия : С потерями
Размер потока : 669 Мбайт (2%)
Заголовок : Дубляж (Blu-Ray - RUS)
Язык : Russian
Default : Да
Forced : Нет

Аудио #2
Идентификатор : 3
Формат : DTS
Формат/Информация : Digital Theater Systems
Профиль формата : MA / Core
Режим : 16
Параметр Endianness формата : Big
Идентификатор кодека : A_DTS
Продолжительность : 2 ч. 26 м.
Вид битрейта : Переменный
Битрейт : Неизвестно / 1509 Кбит/сек
Каналы : 6 каналов
Расположение каналов : Front: L C R, Side: L R, LFE
Частота : 48,0 КГц
Битовая глубина : 16 бит
Метод сжатия : Без потерь / Lossy
Заголовок : Дубляж (Blu-Ray - RUS)
Язык : Russian
Default : Нет
Forced : Нет

Аудио #3
Идентификатор : 4
Формат : DTS
Формат/Информация : Digital Theater Systems
Профиль формата : MA / Core
Режим : 16
Параметр Endianness формата : Big
Идентификатор кодека : A_DTS
Продолжительность : 2 ч. 26 м.
Вид битрейта : Переменный
Битрейт : Неизвестно / 1509 Кбит/сек
Каналы : 8 каналов / 6 каналов
Расположение каналов : Front: L C R, Side: L R, Back: L R, LFE / Front: L C R, Side: L R, LFE
Частота : 48,0 КГц
Битовая глубина : 24 бит
Метод сжатия : Без потерь / Lossy
Заголовок : Original (Blu-Ray - USA)
Язык : English
Default : Нет
Forced : Нет

Аудио #4
Идентификатор : 5
Формат : AC-3
Формат/Информация : Audio Coding 3
Профиль формата : Dolby Digital
Расширение режима : CM (complete main)
Параметр Endianness формата : Big
Идентификатор кодека : A_AC3
Продолжительность : 2 ч. 26 м.
Вид битрейта : Постоянный
Битрейт : 224 Кбит/сек
Каналы : 2 канала
Расположение каналов : Front: L R
Частота : 48,0 КГц
Битовая глубина : 16 бит
Метод сжатия : С потерями
Размер потока : 234 Мбайт (1%)
Заголовок : Commentary with Director Francis Lawrence and Producer Nina Jacobson
Язык : English
Default : Нет
Forced : Нет

Аудио #5
Идентификатор : 6
Формат : AC-3
Формат/Информация : Audio Coding 3
Профиль формата : Dolby Digital
Расширение режима : CM (complete main)
Параметр Endianness формата : Big
Идентификатор кодека : A_AC3
Продолжительность : 2 ч. 26 м.
Вид битрейта : Постоянный
Битрейт : 224 Кбит/сек
Каналы : 2 канала
Расположение каналов : Front: L R
Частота : 48,0 КГц
Битовая глубина : 16 бит
Метод сжатия : С потерями
Размер потока : 234 Мбайт (1%)
Заголовок : Deion
Язык : English
Default : Нет
Forced : Нет

Текст #1
Идентификатор : 7
Формат : UTF-8
Идентификатор кодека : S_TEXT/UTF8
Идентификатор кодека/Информация : UTF-8 Plain Text
Заголовок : Full #1
Язык : Russian
Default : Нет
Forced : Нет

Текст #2
Идентификатор : 8
Формат : UTF-8
Идентификатор кодека : S_TEXT/UTF8
Идентификатор кодека/Информация : UTF-8 Plain Text
Заголовок : Full #2
Язык : Russian
Default : Нет
Forced : Нет

Текст #3
Идентификатор : 9
Формат : UTF-8
Идентификатор кодека : S_TEXT/UTF8
Идентификатор кодека/Информация : UTF-8 Plain Text
Заголовок : Full
Язык : English
Default : Нет
Forced : Нет

Текст #4
Идентификатор : 10
Формат : UTF-8
Идентификатор кодека : S_TEXT/UTF8
Идентификатор кодека/Информация : UTF-8 Plain Text
Заголовок : SDH
Язык : English
Default : Нет
Forced : Нет

Меню
00:00:00.000 : en:00:00:00.000
00:11:24.684 : en:00:11:24.684
00:16:48.049 : en:00:16:48.049
00:25:38.078 : en:00:25:38.078
00:35:51.649 : en:00:35:51.649
00:44:22.576 : en:00:44:22.576
00:52:12.921 : en:00:52:12.921
01:01:11.376 : en:01:01:11.376
01:08:12.213 : en:01:08:12.213
01:16:48.938 : en:01:16:48.938
01:22:39.663 : en:01:22:39.663
01:29:21.731 : en:01:29:21.731
01:40:43.913 : en:01:40:43.913
01:50:47.766 : en:01:50:47.766
02:02:46.984 : en:02:02:46.984
02:09:58.958 : en:02:09:58.958



Скачать Голодные игры: И вспыхнет пламя через торрент http://i1-imageban-ru.translate.goog/out/2014/01/20/4c7251cdae8197964f773357689f00db.jpg Скачать, смотреть онлайн Голодные игры: И вспыхнет пламя [IMAX Edition] бесплантно в хорошем качестве Описание: Сумев выжить на безжалостных Голодных играх, Китнисс Эвердин и Пит Мелларк возвращаются домой. Но теперь они в ещё большей ... 10 10 6
Info! Золотая раздача, скачанное не засчитывается.
Торрент: Зарегистрирован [2014-07-27 13:04] · скачан: 173 раз
Статус: √ проверено
Размер: 29.19 GB
Как cкачать? Как скачать Голодные игры: И вспыхнет пламя через торрент | UTorrent

% Раздел Тема Автор DL S | L
Фильмы 2013 [DVDrip, WEB-DLRip, HDrip] [ 1.65 GB ] Голодные игры: И вспыхнет пламя / The Hunger Games: Catching Fire IMAX Edition | Лицензия | HDRip-AVC, Дубляж, Лицензия [iTunes White Smoke Скачать
1 | 0
Фильмы [HD 720p, 1080p] (Хороший звук DUB, MVO) [ 9.42 GB ] Голодные игры: И вспыхнет пламя [IMAX Edition | iTunes Russia | 1080p, Дубляж, Цифровая лицензия / iTunes Russia Messa-fan Скачать
1 | 0
Фильмы 2013 [DVDrip, WEB-DLRip, HDrip] [ 2.13 GB ] Голодные игры: И вспыхнет пламя [IMAX Edition | iTunes Russia | HDRip, Дубляж, Цифровая лицензия / iTunes Russia Messa-fan Скачать
1 | 0
Фильмы 2013 [DVDrip, WEB-DLRip, HDrip] [ 1.47 GB ] Голодные игры: И вспыхнет пламя [IMAX Edition | iTunes Russia | HDRip, Дубляж, Цифровая лицензия / iTunes Russia Messa-fan Скачать
1 | 0
Фильмы (Blu-ray, BD-Remux, HDDVD) [ 45.89 GB ] Голодные игры: И вспыхнет пламя [IMAX Edition, USA Transfer | Лицензия | 1080p, Дубляж, Лицензия Messa-fan Скачать
1 | 0
Фильмы [HD 720p, 1080p] (Хороший звук DUB, MVO) [ 6.18 GB ] Голодные игры: И вспыхнет пламя / The Hunger Games: Catching Fire [USA Transfer, IMAX Edition | Лицензия + Original + Sub от R.G. PiratFilms | 720p Messa-fan Скачать
1 | 0
Фильмы [HD 720p, 1080p] (Хороший звук DUB, MVO) [ 5.84 GB ] Голодные игры: И вспыхнет пламя [IMAX Edition | iTunes Russia | 720p, Дубляж, Цифровая лицензия / iTunes Russia Messa-fan Скачать
1 | 0

28-11-2019 20:33  


Отключить вcю реклaмy на сайте, в т.ч. и в плеере онлайн просмотра!

    Дорогой пользователь! Огромная просьба, поблагодарите релизера, оцените раздачу и оставьте свои комментарий, если Вы скачали Голодные игры: И вспыхнет пламя через торрент бесплатно!!
    Комментировать посты могут только пользователи прошедшие не сложную регистрацию
    Показать сообщения:    


    Голодные игры: И вспыхнет пламя через торрент
    Скачать бесплатно Голодные игры: И вспыхнет пламя
    Голодные игры: И вспыхнет пламя скачать торрент
    Голодные игры: И вспыхнет пламя смотреть онлайн
    Cкачать фильм Голодные игры: И вспыхнет пламя бесплатно
    Голодные игры: И вспыхнет пламя скачать торрент в хорошем качестве
    Голодные игры: И вспыхнет пламя смотреть онлайн бесплатно в хорошем качестве
    Вы не можете начинать темы
    Вы не можете отвечать на сообщения
    Вы не можете редактировать свои сообщения
    Вы не можете удалять свои сообщения
    Вы не можете голосовать в опросах
    Вы не можете прикреплять файлы к сообщениям
    Вы можете скачивать файлы
    Голодные игры: И вспыхнет пламя [IMAX Edition] / The Hunger Games: Catching Fire [2013, США, фантастика, боевик, триллер, Blu-Ray Remux , Дубляж, Лицензия / IMAX Edition смотреть онлайн, скачать торрент picoco.icu