Достать ножи: Стеклянная луковица

MVO

Добыча

Дубляж

Уэнсдэй

1 сезон

Тор

Дубляж

13 клиническая

1 сезон

Жестокая ночь

MVO

Одни из нас

1 сезон

Deluxe

pack

Рекомендуем

30

Пиратка

ВАЖНО

ВАЖНО

Ghostwire

Пиратка

jed

RePack

nioh2

RePack

RDR2

RePack

NEED FOR SPEED™ PAYBACK

RePack

скачать торрент

Кинопоиск HD

Острые козырьки 6 сезон

6 сезон

FAR CRY 6

RePack

скачать торрент

Лицензия

скачать торрент

MVO

1

1 сезон

скачать торрент

1 сезон

скачать торрент

Лицензия

  

Двойник дьявола / The Devil's Double (Ли Тамахори / Lee Tamahori) [2011 г. Нидерланды, Бельгия. Боевик, драма, биография. BDRemux 1080p] Профессиональный (дубляж), Профессиональный (дубляж) и VO (zamez)

Двойник дьявола через торрент piratbit.org

Размер: 33.86 GB | Добавлен: 8 лет 10 мес. назад | Торрент скачан:21 раз
Смотреть онлайн | Скачать | Поддержите нас   

07-03-2014 13:31 Двойник дьявола Скачать торрент  

Двойник дьявола / The Devil's Double
«Секс... Влacть... куча денег, что ещё нужно 'принцу' у которого есть всё?»
Страна: Нидерланды, Бельгия
Жанр: Боевик, драма, биография
Год выпуска: 2011
Продолжительность: 01:48:52
Перевод : Профессиональный (дубляж) и Одноголосый закадровый - Вячеслав Замез (zamez)
Формат субтитров: srt, pgs
Оригинальная аудиодорожка: Английская
Режиссёр: Ли Тамахори / Lee Tamahori
В ролях: Доминик Купер, Людивин Санье, Раад Рави, Филип Куэст, Мимун Оайясса, Халид Лэйт, Дар Салим, Нассер Мемарзиа, Мем Ферда, Пано Масти
Описание:Секс... Влacть... Слишком много денег... Что еще может понадобиться «Принцу», у которого есть все? Разве что двойник.
На него можно спихнуть всю рутину, а в опасных ситуациях он примет удар на себя. Но и Двойник не останется без награды - он получит все, что есть у принца. Все, кроме женщины, которая станет единственным, что Двойник по-настоящему возжелает.
Качество:: BDRemux
Формат: MKV
Видео кодек: AVC
Аудио кодек:DTS-HD MA
Видео : MPEG-4 AVC / 34993 kbps / 1080p / 23.976 fps / 16:9 / High Profile 4.1
Аудио 1: Русский дубляж / DTS-HD MA / 5.1 / 1998 kbps / 48 kHz / 16-bit (DTS Core: 5.1 / 48 kHz / 1509 kbps / 16-bit) (добавил заставку Lionsgate)
Аудио 2: Русский одноголосый В. Замез / DTS / 5.1 / 1536 kbps / 48 kHz (ненормативная лексика) (спасибо mihaildns)
Аудио 3: Русский одноголосый В. Замез / DTS / 5.1 / 1536 kbps / 48 kHz (спасибо mihaildns)
Аудио 4: Английский / DTS-HD MA / 7.1 / 4467 kbps / 48 kHz / 24-bit (DTS Core: 5.1 / 48 kHz / 1509 kbps / 24-bit)
Аудио 5: Английский / Dolby Digital / 2.0 / 224 kbps / 48 kHz (Commentary with Director Lee Tamahori)
Cубтитры 1: Русские srt (BD west video)
Cубтитры 2: Русские srt (Е.Воронин)
Cубтитры 3: Английские srt
Cубтитры 4: Английские pgs
Cубтитры 5: Английские SDH pgs
Главы: есть

Код:

Полное имя                       : The.Devil's.Double.2011.Blu-ray.1080p.AVC.Rus.Eng.mkv
Формат                           : Matroska
Версия формата                   : Version 2
Размер файла                     : 33,9 Гбайт
Продолжительность                : 1 ч. 48 м.
Режим общего битрейта            : Переменный
Общий поток                      : 44,5 Мбит/сек
Название фильма                  : HANSMER
Дата кодирования                 : UTC 2011-12-10 02:46:05
Программа кодирования            : mkvmerge v5.1.0 ('And so it goes') built on Nov 28 2011 23:58:28
Библиотека кодирования           : libebml v1.2.3 + libmatroska v1.3.0
Видео
Идентификатор                    : 1
Формат                           : AVC
Формат/Информация                : Advanced Video Codec
Профиль формата                  : High@L4.1
Параметр CABAC формата           : Да
Параметр ReFrames формата        : 4 кадра
Параметр GOP формата             : M=3, N=12
Режим смешивания                 : Container profile=Unknown@0.0
Идентификатор кодека             : V_MPEG4/ISO/AVC
Продолжительность                : 1 ч. 48 м.
Вид битрейта                     : Переменный
Битрейт                          : 37,0 Мбит/сек
Ширина                           : 1920 пикселей
Высота                           : 1080 пикселей
Соотношение сторон               : 16:9
Частота кадров                   : 23,976 кадра/сек
Цветовое пространство            : YUV
Субдискретизация насыщенности    : 4:2:0
Битовая глубина                  : 8 бит
Тип развёртки                    : Прогрессивная
Бит/(Пиксели*Кадры)              : 0.744
Размер потока                    : 28,3 Гбайт (84%)
Заголовок                        : 34993 kbps
Язык                             : English
Аудио #1
Идентификатор                    : 2
Формат                           : DTS
Формат/Информация                : Digital Theater Systems
Профиль формата                  : MA / Core
Идентификатор кодека             : A_DTS
Продолжительность                : 1 ч. 48 м.
Вид битрейта                     : Переменный
Битрейт                          : 1561 Кбит/сек / 1510 Кбит/сек
Каналы                           : 6 каналов
Расположение каналов             : Front: L C R, Side: L R, LFE
Частота                          : 48,0 КГц
Битовая глубина                  : 16 бит
Метод сжатия                     : Без потерь / Lossy
Заголовок                        : Дубляж / DTS-HD MA 5.1 @ 1998 kbps
Язык                             : Russian
Аудио #2
Идентификатор                    : 3
Формат                           : DTS
Формат/Информация                : Digital Theater Systems
Идентификатор кодека             : A_DTS
Продолжительность                : 1 ч. 48 м.
Вид битрейта                     : Постоянный
Битрейт                          : 1510 Кбит/сек
Каналы                           : 6 каналов
Расположение каналов             : Front: L C R, Side: L R, LFE
Частота                          : 48,0 КГц
Битовая глубина                  : 24 бит
Метод сжатия                     : С потерями
Размер потока                    : 1,15 Гбайт (3%)
Заголовок                        : Zamez (mat)
Язык                             : Russian
Аудио #3
Идентификатор                    : 4
Формат                           : DTS
Формат/Информация                : Digital Theater Systems
Идентификатор кодека             : A_DTS
Продолжительность                : 1 ч. 48 м.
Вид битрейта                     : Постоянный
Битрейт                          : 1510 Кбит/сек
Каналы                           : 6 каналов
Расположение каналов             : Front: L C R, Side: L R, LFE
Частота                          : 48,0 КГц
Битовая глубина                  : 24 бит
Метод сжатия                     : С потерями
Размер потока                    : 1,15 Гбайт (3%)
Заголовок                        : Zamez
Язык                             : Russian
Аудио #4
Идентификатор                    : 5
Формат                           : DTS
Формат/Информация                : Digital Theater Systems
Профиль формата                  : MA / Core
Идентификатор кодека             : A_DTS
Продолжительность                : 1 ч. 48 м.
Вид битрейта                     : Переменный
Битрейт                          : 1597 Кбит/сек / 1510 Кбит/сек
Каналы                           : 8 каналов / 6 каналов
Расположение каналов             : Front: L C R, Side: L R, Back: L R, LFE / Front: L C R, Side: L R, LFE
Частота                          : 48,0 КГц
Битовая глубина                  : 24 бит
Метод сжатия                     : Без потерь / Lossy
Заголовок                        : DTS-HD MA 7.1 @ 4467 kbps
Язык                             : English
Аудио #5
Идентификатор                    : 6
Формат                           : AC-3
Формат/Информация                : Audio Coding 3
Расширение режима                : CM (complete main)
Идентификатор кодека             : A_AC3
Продолжительность                : 1 ч. 48 м.
Вид битрейта                     : Постоянный
Битрейт                          : 224 Кбит/сек
Каналы                           : 2 канала
Расположение каналов             : Front: L R
Частота                          : 48,0 КГц
Битовая глубина                  : 16 бит
Метод сжатия                     : С потерями
Размер потока                    : 174 Мбайт (1%)
Заголовок                        : Commentary with Director Lee Tamahori
Язык                             : English
Текст #1
Идентификатор                    : 7
Формат                           : UTF-8
Идентификатор кодека             : S_TEXT/UTF8
Идентификатор кодека/Информация  : UTF-8 Plain Text
Заголовок                        : BD west video
Язык                             : Russian
Текст #2
Идентификатор                    : 8
Формат                           : UTF-8
Идентификатор кодека             : S_TEXT/UTF8
Идентификатор кодека/Информация  : UTF-8 Plain Text
Заголовок                        : voronine
Язык                             : Russian
Текст #3
Идентификатор                    : 9
Формат                           : UTF-8
Идентификатор кодека             : S_TEXT/UTF8
Идентификатор кодека/Информация  : UTF-8 Plain Text
Язык                             : English
Текст #4
Идентификатор                    : 10
Формат                           : PGS
Идентификатор кодека             : S_HDMV/PGS
Идентификатор кодека/Информация  : The same subtitle format used on BDs/HD-DVDs
Заголовок                        : PGS
Язык                             : English
Текст #5
Идентификатор                    : 11
Формат                           : PGS
Идентификатор кодека             : S_HDMV/PGS
Идентификатор кодека/Информация  : The same subtitle format used on BDs/HD-DVDs
Заголовок                        : PGS SDH
Язык                             : English
Меню
00:00:00.000                     : en:Security Detail
00:04:48.371                     : en:I Want You
00:10:36.636                     : en:You Belong to Him
00:21:14.982                     : en:Family/Discipline
00:30:22.029                     : en:Three Sons
00:33:36.097                     : en:Public Appearance/Chasing Girls
00:44:50.354                     : en:Taking Orders
00:48:07.051                     : en:Spared/A Visitor
00:57:56.640                     : en:Military Speech
01:01:37.694                     : en:Ambushed
01:06:24.731                     : en:Wedding Day/Do It Yourself
01:11:38.586                     : en:Complaint/Proud of You/The Party
01:19:45.030                     : en:New Ride/Come Back
01:27:45.927                     : en:It Was You
01:32:54.486                     : en:Your Father
01:38:42.125                     : en:Justice




Скачать Двойник дьявола через торрент http://i31.fastpic.ru/big/2011/1210/6e/879f08da41b386b0c095718bddfa7b6e.jpg Скачать, смотреть онлайн Двойник дьявола бесплантно в хорошем качестве Описание:Секс... Влacть... Слишком много денег... Что еще может понадобиться «Принцу», у которого есть все? Разве что двойник.На него можно ... 10 10 4
Info! Золотая раздача, скачанное не засчитывается.
Торрент: Зарегистрирован [2014-03-07 13:31] · скачан: 21 раз
Статус: √ проверено
Размер: 33.86 GB
Как cкачать? Как скачать Двойник дьявола через торрент | UTorrent

% Раздел Тема Автор DL S | L
Фильмы [HD 720p, 1080p] (Хороший звук DUB, MVO) [ 12.16 GB ] Двойник дьявола / The Devil's Double | | 1080p Ворон Скачать
1 | 0
Фильмы 2011 [ 2.52 GB ] Двойник дьявола / The Devil's Double | DUB+VO+Original | BDRip -=Cherry=- Скачать
1 | 0
Фильмы (DVD фильмы) [ 7.36 GB ] Двойник дьявола / The Devil's Double | | Двойник дьявола / The Devil's Double (Ли Тамахори / Lee Tamahori voovaz Скачать
1 | 0

28-11-2019 20:33  


Отключить вcю реклaмy на сайте, в т.ч. и в плеере онлайн просмотра!

07-03-2014 16:01 Двойник дьявола Скачать торрент  

Отличный фильм!



07-03-2014 17:20 Двойник дьявола Скачать торрент  

Поменьше размер фильма будет?



    Дорогой пользователь! Огромная просьба, поблагодарите релизера, оцените раздачу и оставьте свои комментарий, если Вы скачали Двойник дьявола через торрент бесплатно!!
    Комментировать посты могут только пользователи прошедшие не сложную регистрацию
    Показать сообщения:    


    Двойник дьявола через торрент
    Скачать бесплатно Двойник дьявола
    Двойник дьявола скачать торрент
    Двойник дьявола смотреть онлайн
    Cкачать фильм Двойник дьявола бесплатно
    Двойник дьявола скачать торрент в хорошем качестве
    Двойник дьявола смотреть онлайн бесплатно в хорошем качестве
    Вы не можете начинать темы
    Вы не можете отвечать на сообщения
    Вы не можете редактировать свои сообщения
    Вы не можете удалять свои сообщения
    Вы не можете голосовать в опросах
    Вы не можете прикреплять файлы к сообщениям
    Вы можете скачивать файлы
    Двойник дьявола / The Devil's Double [2011 г. Нидерланды, Бельгия. Боевик, драма, биография. BDRemux 1080p] Профессиональный , Профессиональный и VO смотреть онлайн, скачать торрент picoco.icu