Достать ножи: Стеклянная луковица

MVO

Добыча

Дубляж

Уэнсдэй

1 сезон

Тор

Дубляж

13 клиническая

1 сезон

Жестокая ночь

MVO

Одни из нас

1 сезон

Deluxe

pack

Рекомендуем

30

Пиратка

ВАЖНО

ВАЖНО

Ghostwire

Пиратка

jed

RePack

nioh2

RePack

RDR2

RePack

NEED FOR SPEED™ PAYBACK

RePack

скачать торрент

Кинопоиск HD

Острые козырьки 6 сезон

6 сезон

FAR CRY 6

RePack

скачать торрент

Лицензия

скачать торрент

MVO

1

1 сезон

скачать торрент

1 сезон

скачать торрент

Лицензия

  

Воровка книг / The Book Thief (Брайан Персивал) [2013, Драма, Военный, BD Remux, Дублированный] от R.G. PiratFilms

Воровка книг через торрент piratbit.org

Размер: 26.97 GB | Добавлен: 8 лет 10 мес. назад | Торрент скачан:39 раз
Смотреть онлайн | Скачать | Поддержите нас   

08-03-2014 20:06 Воровка книг Скачать торрент  

Воровка книг / The Book Thief
«Отвага без лишних слов»


Информация Описание

Год выпуска: 2013
Страна: США, Германия
Жанр: Драма, Военный
Продолжительность: 02:10:59
Перевод: Дублированный
Режиссер: Брайан Персивал
В ролях: Софи Нелисс, Джеффри Раш, Эмили Уотсон, Бен Шнетцер, Нико Лирш, Роджер Аллам, Барбара Ауэр, Карина Визе, Оливер Стоковски, Райнер Бок, Хайке Макач, Джулиан Леманн


Описание фильма:

Германия, начало 1939 года, канун Второй мировой войны. Смерть готовится начать свою жатву. Девятилетняя Лизель переезжает в Мюнхен к своим приемным родителям и с их помощью учится читать. С каждым днем чтение становится ее жизненной потребностью, и Лизель начинает воровать книги - единственную отраду ее жизни. Все, что она узнает из них, помогает ей понять события, происходящие вокруг нее - гонение на евреев, антифашистское движение, унижения и голод. Все это, в конце концов, сложится в ее собственную историю, историю ее жизни.

Информация о файле:

Качество: BD Remux | Исходник: Blu-ray | Сингронизация звука и видео: XLASER
Формат: MKV
Видео кодек: AVC
Аудио кодек: AC3|DTS
Видео: 1920x1080 (16:9), 26199 Кбит/сек, 23,976 fps
Аудио №1: DTS-HD, 1560 Кбит/сек, 6 каналов, 48 КГц |English|
Аудио №2: AC3, 448 Кбит/сек, 6 каналов, 48 КГц |English|
Аудио №3: DTS, 755 Кбит/сек, 6 каналов, 48 КГц |Russian|
Субтитры: |S_HDMV / PGS| English, Russian, Ukrainian




Код:

Формат                                   : Matroska
Версия формата                           : Version 4 / Version 2
Размер файла                             : 27,0 Гбайт
Продолжительность                        : 2 ч. 10 м.
Режим общего битрейта                    : Переменный
Общий поток                              : 29,5 Мбит/сек
Дата кодирования                         : UTC 2014-03-09 06:19:56
Программа кодирования                    : mkvmerge v6.8.0 ('Theme for Great Cities') 32bit built on Mar  2 2014 21:27:07
Библиотека кодирования                   : libebml v1.3.0 + libmatroska v1.4.1

Видео
Идентификатор                            : 1
Формат                                   : AVC
Формат/Информация                        : Advanced Video Codec
Профиль формата                          : High@L4.1
Параметр CABAC формата                   : Да
Параметр ReFrames формата                : 4 кадра
Идентификатор кодека                     : V_MPEG4/ISO/AVC
Продолжительность                        : 2 ч. 10 м.
Вид битрейта                             : Переменный
Битрейт                                  : 26,1 Мбит/сек
Максимальный битрейт                     : 33,5 Мбит/сек
Ширина                                   : 1920 пикселей
Высота                                   : 1080 пикселей
Соотношение сторон                       : 16:9
Режим частоты кадров                     : Постоянный
Частота кадров                           : 23,976 кадра/сек
Цветовое пространство                    : YUV
Субдискретизация насыщенности            : 4:2:0
Битовая глубина                          : 8 бит
Тип развёртки                            : Прогрессивная
Бит/(Пиксели*Кадры)                      : 0.526
Размер потока                            : 23,9 Гбайт (89%)
Default                                  : Да
Forced                                   : Нет

Аудио #1
Идентификатор                            : 2
Формат                                   : DTS
Формат/Информация                        : Digital Theater Systems
Профиль формата                          : MA / Core
Идентификатор кодека                     : A_DTS
Продолжительность                        : 2 ч. 10 м.
Вид битрейта                             : Переменный
Битрейт                                  : 1561 Кбит/сек / 1510 Кбит/сек
Каналы                                   : 6 каналов
Расположение каналов                     : Front: L C R, Side: L R, LFE
Частота                                  : 48,0 КГц
Битовая глубина                          : 24 бит
Метод сжатия                             : Без потерь / Lossy
Язык                                     : English
Default                                  : Да
Forced                                   : Нет

Аудио #2
Идентификатор                            : 3
Формат                                   : AC-3
Формат/Информация                        : Audio Coding 3
Расширение режима                        : CM (complete main)
Параметр Endianness формата              : Big
Идентификатор кодека                     : A_AC3
Продолжительность                        : 2 ч. 10 м.
Вид битрейта                             : Постоянный
Битрейт                                  : 448 Кбит/сек
Каналы                                   : 6 каналов
Расположение каналов                     : Front: L C R, Side: L R, LFE
Частота                                  : 48,0 КГц
Битовая глубина                          : 16 бит
Метод сжатия                             : С потерями
Размер потока                            : 420 Мбайт (2%)
Язык                                     : English
Default                                  : Нет
Forced                                   : Нет

Аудио #3
Идентификатор                            : 4
Формат                                   : DTS
Формат/Информация                        : Digital Theater Systems
Идентификатор кодека                     : A_DTS
Продолжительность                        : 2 ч. 10 м.
Вид битрейта                             : Постоянный
Битрейт                                  : 755 Кбит/сек
Каналы                                   : 6 каналов
Расположение каналов                     : Front: L C R, Side: L R, LFE
Частота                                  : 48,0 КГц
Битовая глубина                          : 24 бит
Метод сжатия                             : С потерями
Размер потока                            : 707 Мбайт (3%)
Язык                                     : Russian
Default                                  : Нет
Forced                                   : Нет

Текст #1
Идентификатор                            : 5
Формат                                   : PGS
Режим смешивания                         : zlib
Идентификатор кодека                     : S_HDMV/PGS
Идентификатор кодека/Информация          : The same subtitle format used on BDs/HD-DVDs
Язык                                     : English
Default                                  : Да
Forced                                   : Нет

Текст #2
Идентификатор                            : 6
Формат                                   : PGS
Режим смешивания                         : zlib
Идентификатор кодека                     : S_HDMV/PGS
Идентификатор кодека/Информация          : The same subtitle format used on BDs/HD-DVDs
Язык                                     : Russian
Default                                  : Нет
Forced                                   : Нет

Текст #3
Идентификатор                            : 7
Формат                                   : PGS
Режим смешивания                         : zlib
Идентификатор кодека                     : S_HDMV/PGS
Идентификатор кодека/Информация          : The same subtitle format used on BDs/HD-DVDs
Язык                                     : Ukrainian
Default                                  : Нет
Forced                                   : Нет



скриншот   скриншот   скриншот   скриншот  





Скачать Воровка книг через торрент https://pic1.kartinco.top/images/61/ejhid.jpg Скачать, смотреть онлайн Воровка книг бесплантно в хорошем качестве ОписаниеГод выпуска: 2013Страна: США, ГерманияЖанр: Драма, ВоенныйПродолжительность: 02:10:59Перевод: ДублированныйРежиссер: Брайан ... 9.9 10 9
Info! Золотая раздача, скачанное не засчитывается.
Торрент: Зарегистрирован [2014-03-09 06:52] · скачан: 39 раз
Статус: √ проверено
Размер: 26.97 GB
Как cкачать? Как скачать Воровка книг через торрент | UTorrent

% Раздел Тема Автор DL S | L
Фильмы [HD 720p, 1080p] (Хороший звук DUB, MVO) [ 5.84 GB ] Воровка книг / The Book Thief | Лицензия + Original + Subs от R.G. PiratFilms | 720p Messa-fan Скачать
1 | 0



Последний раз редактировалось: XLASER (2014-03-09 09:16), всего редактировалось 1 раз

28-11-2019 20:33  


Отключить вcю реклaмy на сайте, в т.ч. и в плеере онлайн просмотра!

10-04-2014 08:36 Воровка книг Скачать торрент  

стою 3 день.



    Дорогой пользователь! Огромная просьба, поблагодарите релизера, оцените раздачу и оставьте свои комментарий, если Вы скачали Воровка книг через торрент бесплатно!!
    Комментировать посты могут только пользователи прошедшие не сложную регистрацию
    Показать сообщения:    


    Воровка книг через торрент
    Скачать бесплатно Воровка книг
    Воровка книг скачать торрент
    Воровка книг смотреть онлайн
    Cкачать фильм Воровка книг бесплатно
    Воровка книг скачать торрент в хорошем качестве
    Воровка книг смотреть онлайн бесплатно в хорошем качестве
    Вы не можете начинать темы
    Вы не можете отвечать на сообщения
    Вы не можете редактировать свои сообщения
    Вы не можете удалять свои сообщения
    Вы не можете голосовать в опросах
    Вы не можете прикреплять файлы к сообщениям
    Вы можете скачивать файлы
    Воровка книг / The Book Thief [2013, Драма, Военный, BD Remux, Дублированный] от R.G. PiratFilms смотреть онлайн, скачать торрент picoco.icu