Достать ножи: Стеклянная луковица

MVO

Добыча

Дубляж

Уэнсдэй

1 сезон

Тор

Дубляж

13 клиническая

1 сезон

Жестокая ночь

MVO

Одни из нас

1 сезон

Deluxe

pack

Рекомендуем

30

Пиратка

ВАЖНО

ВАЖНО

Ghostwire

Пиратка

jed

RePack

nioh2

RePack

RDR2

RePack

NEED FOR SPEED™ PAYBACK

RePack

скачать торрент

Кинопоиск HD

Острые козырьки 6 сезон

6 сезон

FAR CRY 6

RePack

скачать торрент

Лицензия

скачать торрент

MVO

1

1 сезон

скачать торрент

1 сезон

скачать торрент

Лицензия

  

Отпуск по обмену / The Holiday (Нэнси Майерс) [2006 г., Комедия, драма, мелодрама, рождество, Дубляж / Blu-Ray EUR (1080p)]

Отпуск по обмену через торрент piratbit.org

Размер: 30.71 GB | Добавлен: 8 лет 10 мес. назад | Торрент скачан:23 раза
Смотреть онлайн | Скачать | Поддержите нас   

09-03-2014 21:53 Отпуск по обмену Скачать торрент  

Отпуск по обмену / The Holiday

Год выпуска: 2006
Страна: США
Выпущено: Columbia Pictures, Universal Pictures, Relativity Media
Жанр: Комедия, драма, мелодрама, рождество
Продолжительность: 02:15:46
Перевод: Дубляж
Субтитры: Русские, английские, японские, французские, итальянские, немецкие, испанские, португальские, датские, голландские, финские, норвежские, шведские

Режиссер: Нэнси Майерс
Продюссер: Брюс А. Блок, Нэнси Майерс, Дженнифер Итц
Сценарий: Нэнси Майерс
Бюджет: $85 000 000
Премьера в мире: 5 декабря 2006

IMDB 6.90 (136 112)


В ролях: Кэмерон Диаз, Кейт Уинслет, Джуд Лоу, Джек Блэк, Эли Уоллах, Эдвард Бёрнс, Руфус Сьюэлл, Миффи Энгелфилд, Эмма Притчард, Сара Пэриш, Шаннин Соссамон, Билл Мэйси, Шелли Берман, Кэтрин Хан, Джон Красински, Алекс О`Лафлин, Одетт Эннэйбл, Бандл Уильямс, Сюзанн Дизон, Терри Диаб, Кеннет Дэнзигер

Описание: Айрис Симпкинс, автор популярной свадебной колонки в лондонской «Daily Telegraph», живет в очаровательном коттедже в английской провинции. Она влюблена в мужчину, который любит другую. Далеко от нее в Южной Калифорнии живет Аманда Вудс, владелица процветающего рекламного агентства, занимающегося созданием роликов для фильмов. Она вдруг обнаруживает, что любимый человек ей изменяет.Две незнакомые друг с другом женщины, живущие на расстоянии 10 000 километров друг от друга, оказываются в сходной ситуации. И они находят друг друга. В Интернете, на сайте обмена жильем на время отпуска. Перед Рождеством Айрис и Аманда решают отдохнуть от своих проблем, договорившись поменяться континентами и пожить друг у друга в течение двух недель. Айрис переезжает в дом Аманды в солнечной Калифорнии, а Аманда приезжает в засыпанную снегом английскую провинцию...

Качество: Blu-Ray EUR (1080p)
Формат: BDMV
Видео кодек: VC-1
Аудио кодек: DTS
Видео: VC-1 Video 19546 kbps 1920x1080 / 23,976 fps / 16:9 / Advanced Profile 3
Аудио#1: DTS Audio Japanese 768 kbps 5.1 / 48 kHz / 768 kbps / 24-bit
Аудио#2: DTS-HD Master Audio English 3409 kbps 5.1 / 48 kHz / 3409 kbps / 24-bit (DTS Core: 5.1 / 48 kHz / 1509 kbps / 24-bit)
Аудио#3: DTS Audio French 768 kbps 5.1 / 48 kHz / 768 kbps / 24-bit
Аудио#4: DTS Audio Italian 768 kbps 5.1 / 48 kHz / 768 kbps / 24-bit
Аудио#5: DTS Audio German 768 kbps 5.1 / 48 kHz / 768 kbps / 24-bit
Аудио#6: DTS Audio Spanish 768 kbps 5.1 / 48 kHz / 768 kbps / 24-bit
Аудио#7: DTS Audio Portuguese 768 kbps 5.1 / 48 kHz / 768 kbps / 24-bit
Аудио#8: DTS Audio Spanish 768 kbps 5.1 / 48 kHz / 768 kbps / 24-bit
Аудио#9: DTS Audio Russian 768 kbps 5.1 / 48 kHz / 768 kbps / 24-bit
*Героиня Кэмерон Диаз, приехав в дом по обмену, с бокалом в руке исполняет песню американской рок-группы The Killers «Mr.Brightside».
*Когда Айрис рассматривает коллекцию фильмов Аманды можно увидеть фильм «Энигма» (2001), в котором играла Кейт Уинслет.
*Нэнси Майерс всегда ставит актерам на съемках музыку, которая потом будет звучать в той или иной сцене, чтобы они лучше прочувствовали момент.
*Илаю Уоллеку, сыгравшего Артура Эббота, в момент съемок исполнилось 90 лет.
Премия канала «MTV», 2007 год
Номинации (1):
Лучший поцелуй (Кэмерон Диаз, Джуд Лоу)
Название диска: ПРАЗДНИК
Диск Размер: 32 977 205 068 байт
Защита: AACS
BD-Java: Да
BDInfo: 0.5.8

Примечания:

BDInfo ГЛАВНАЯ:
Кино Squid
http://www.cinemasquid.com/blu-ray/tools/bdinfo

Включает ФОРУМ Отчет для:
Харьков Форум Blu-Ray аудио и видео характеристики темы
http://www.avsforum.com/avs-vb/showthread.php?t=1155731

********************
Плейлист: 00849.MPLS
********************

<--- Начало Форумы ПАСТА --->

Total Video
Название Кодек Длина фильма Размер диска Размер Качество Поток основная звуковая дорожка вторичного аудио трек
-------------------------------------------------- -------------------------------------------------
00849.MPLS VC-1 2:15:46 32 276 066 304 32 977 205 068 31,70 19,55 DTS 5.1 768Kbps (48kHz/24-bit)

DISC INFO:

Название диска: ПРАЗДНИК
Диск Размер: 32 977 205 068 байт
Защита: AACS
BD-Java: Да
BDInfo: 0.5.8

ПЛЕЙЛИСТ ОТЧЕТ:

Имя: 00849.MPLS
Длина: 2:15:46.138 (час: мин: s.ms)
Размер: 32 276 066 304 байт
Всего Поток: 31,70 Мбит

ВИДЕО:

Кодек Поток Описание
-----------------------
VC-1 видео 19546 кбит 1080p / 23976 кадров в секунду / 16:09 / Расширенный профиля 3

АУДИО:

Кодек Язык Поток Описание
-------------------------------
DTS аудио Японский 768 кбит 5.1 / 48 кГц / 768 кбит / 24-бит
DTS-HD Master Audio English 3409 кбит 5.1 / 48 кГц / 3409 кбит / 24-бит (DTS Core: 5.1 / 48 кГц / 1509 кбит / 24-бит)
DTS аудио Французский 768 кбит 5.1 / 48 кГц / 768 кбит / 24-бит
DTS аудио итальянские 768 кбит 5.1 / 48 кГц / 768 кбит / 24-бит
DTS аудио немецкие 768 кбит 5.1 / 48 кГц / 768 кбит / 24-бит
DTS аудио Испанский 768 кбит 5.1 / 48 кГц / 768 кбит / 24-бит
DTS аудио Португальский 768 кбит 5.1 / 48 кГц / 768 кбит / 24-бит
DTS аудио Испанский 768 кбит 5.1 / 48 кГц / 768 кбит / 24-бит
DTS аудио России 768 кбит 5.1 / 48 кГц / 768 кбит / 24-бит

Субтитры:

Кодек Язык Поток Описание
-------------------------------
Презентация Графика Японская 23348 кбит
Презентация Графика Английский 40327 кбит
Презентация Графика французские 41155 кбит
Презентация Графика Итальянский 38424 кбит
Презентация Графика Немецкий 45294 кбит
Презентация Графика Испанский 39166 кбит
Презентация Графика Португальский 31690 кбит
Презентация Графика Испанский 38199 кбит
Презентация Графика Датский 34030 кбит
Презентация Графика Голландский 31553 кбит
Презентация Графика Финский 28512 кбит
Презентация Графика Норвежский 30436 кбит
Презентация Графика Шведский 33917 кбит
Презентация Графика Японская 0112 кбит
Презентация Графика Французский 0051 кбит
Презентация Графика Итальянский 0107 кбит
Презентация Графика Немецкий 0050 кбит
Презентация Графика Испанский 0076 кбит
Презентация Графика Португальский 0023 кбит
Презентация Графика Испанский 0068 кбит
Презентация Графика России 0164 кбит

ФАЙЛЫ:

Имя Время В Время Размер Всего Поток
----------------------------------
00010.M2TS 0:00:00.000 2:15:46.138 32 276 066 304 31 697

ГЛАВЫ:

Количество Время В Длина Средняя Видео курс Макс 1-Sec Rate Макс 1-Sec Время Макс 5-Sec Rate Макс 5-Sec Время Макс 10Sec Оценить Макс 10Sec Время Средняя Размер кадра Макс Размер кадра Максимальная частота Время
-------------------------------------------------- -------------------------------------------------- -------------------------------------------------- ---------
1 0:00:00.000 0:05:44.344 20 226 кбит 32 750 кбит 00:03:13.192 24 116 кбит 00:03:11.274 23 099 кбит 00:03:13.776 105 652 байт 602 127 байт 00:04:43.741
2 0:05:44.344 0:04:01.866 21 453 кбит 30 572 кбит 00:06:19.295 23 879 кбит 00:06:19.212 23 035 кбит 00:09:19.725 111 844 байт 509 209 байт 00:09:14.512
3 0:09:46.210 0:01:07.192 20 216 кбит 29 611 кбит 00:10:29.086 23 290 кбит 00:10:08.316 22 782 кбит 00:10:28.753 105 527 байт 352 605 байт 00:10:29.962
4 0:10:53.402 0:05:06.723 21 889 кбит 30 390 кбит 00:12:25.578 23 598 кбит 00:12:25.536 22 806 кбит 00:13:47.284 114 148 байт 587 298 байт 00:13:51.705
5 0:16:00.125 0:02:25.812 21 698 кбит 30 616 кбит 00:16:36.245 24 056 кбит 00:17:54.406 22 960 кбит 00:17:54.990 113 123 байт 483 325 байт 00:16:13.931
6 0:18:25.938 0:05:45.345 21 169 кбит 31 085 кбит 00:22:51.787 23 907 кбит 00:22:47.783 22 899 кбит 00:23:47.926 110 367 байт 513 167 байт 00:22:52.162
7 0:24:11.283 0:04:15.797 20 421 кбит 33 132 кбит 00:26:43.184 24 174 кбит 00:26:42.767 23 127 кбит 00:26:43.018 106 467 байт 669 001 байт 00:25:57.013
8 0:28:27.080 0:04:40.321 21 141 кбит 31 598 кбит 00:31:40.106 23 963 кбит 00:31:40.106 22 955 кбит 00:29:45.492 110 217 байт 660 018 байт 00:28:48.643
9 0:33:07.402 0:05:38.379 20 657 кбит 32 550 кбит 00:34:58.054 23 934 кбит 00:38:07.952 23 011 кбит 00:38:18.879 107 694 байт 604 659 байт 00:35:22.829
10 0:38:45.781 0:09:16.055 18 993 кбит 29 775 кбит 00:45:35.607 23 656 кбит 00:46:30.245 22 556 кбит 00:42:01.310 99 154 байт 471 987 байт 00:41:53.177
11 0:48:01.837 0:04:24.847 21 556 кбит 30 591 кбит 00:52:01.743 24 106 кбит 00:48:06.758 23 007 кбит 00:50:20.809 112 384 байта 568 998 байт 00:48:46.757
12 0:52:26.685 0:03:31.586 18 558 кбит 32 322 кбит 00:52:42.617 22 705 кбит 00:52:32.315 21 145 кбит 00:54:39.734 97 177 байт 467 386 байт 00:54:45.615
13 0:55:58.271 0:04:05.453 21 052 кбит 30 831 кбит 00:56:56.913 24 336 кбит 00:56:24.255 22 918 кбит 00:56:24.255 109 757 байт 505 853 байт 00:59:19.681
14 1:00:03.725 0:02:24.561 20 699 кбит 28 466 кбит 01:01:35.900 23 841 кбит 01:00:48.936 22 846 кбит 01:01:42.490 107 917 байт 467 502 байт 01:01:42.949
15 1:02:28.286 0:06:31.391 21 000 кбит 31 919 кбит 01:05:14.452 23 999 кбит 01:04:36.622 23 118 кбит 01:03:10.828 109 485 байт 652 797 байт 01:05:15.244
16 1:08:59.677 0:02:42.954 20 361 кбит 31 307 кбит 01:09:27.037 23 621 кбит 01:09:15.192 22 556 кбит 01:09:31.709 106 153 байт 513 754 байт 01:09:27.913
17 1:11:42.631 0:04:08.373 18 413 кбит 29 623 кбит 01:12:26.925 23 179 кбит 01:12:44.318 22 613 кбит 01:11:48.470 95 999 байт 374 413 байт 01:12:27.551
18 1:15:51.004 0:04:20.510 18 516 кбит 28 184 кбит 01:16:16.947 24 228 кбит 01:16:12.943 22 936 кбит 01:16:07.854 96 534 байт 444 517 байт 01:19:47.532
19 1:20:11.515 0:02:01.579 19 478 кбит 27 295 кбит 01:21:43.899 23 797 кбит 01:21:39.561 21 915 кбит 01:21:34.890 101 548 байт 431 635 байт 01:21:44.399
20 1:22:13.094 0:02:37.448 20 286 кбит 28 579 кбит 01:22:57.764 24 039 кбит 01:22:25.273 23 149 кбит 01:22:21.853 105 762 байт 427 599 байт 01:23:09.693
21 1:24:50.543 0:03:20.199 17 184 кбит 28 823 кбит 01:26:57.462 20 548 кбит 01:25:02.555 19 405 кбит 01:27:10.183 89 588 байт 364 226 байт 01:27:58.523
22 1:28:10.743 0:03:19.407 18 254 кбит 27 945 кбит 01:30:22.959 23 543 кбит 01:30:53.364 23 058 кбит 01:30:54.157 95 168 байт 419 465 байт 01:30:23.251
23 1:31:30.151 0:02:24.477 20 721 кбит 31 485 кбит 01:33:04.954 23 777 кбит 01:33:04.370 23 014 кбит 01:33:04.954 108 030 байт 516 215 байт 01:33:08.207
24 1:33:54.629 0:02:31.192 21 687 кбит 31 129 кбит 01:36:01.589 23 564 кбит 01:34:08.559 22 814 кбит 01:36:01.255 113 067 байт 579 426 байт 01:34:08.601
25 1:36:25.821 0:04:42.115 20 944 кбит 32 629 кбит 01:36:30.159 24 252 кбит 01:36:30.326 22 922 кбит 01:37:54.493 109 194 байт 612 425 байт 01:36:31.035
26 1:41:07.936 0:08:02.440 18 403 кбит 26 816 кбит 01:45:37.456 23 333 кбит 01:44:11.745 22 989 кбит 01:44:08.283 96 028 байт 323 532 байт 01:47:53.717
27 1:49:10.377 0:13:31.435 18 501 кбит 30 172 кбит 01:49:24.766 23 830 кбит 02:00:11.370 22 805 кбит 01:51:16.961 96 457 байт 422 965 байт 02:01:53.514
28 2:02:41.812 0:13:04.325 15 784 кбит 32 293 кбит 02:06:49.893 23 996 кбит 02:06:22.157 22 915 кбит 02:06:23.576 82 408 байт 661 230 байт 02:06:46.432

STREAM ДИАГНОСТИКА:

Файл ПИД Тип Кодек Язык секунд Битрейт Bytes Пакеты
-------------------------------------------------- --------------------
00010.M2TS 4113 (0x1011) 0xEA VC-1 8146.013 19 546 19 903 057 016 108 286 803
00010.M2TS 4352 (0x1100) 0x82 DTS JPN (японский) 8146.013 768 782 029 824 4 582 206
00010.M2TS 4353 (0x1101) 0x86 DTS-HD MA англ (Английский) 8146.013 3 409 3 470 938 308 20 135 608
00010.M2TS 4354 (0x1102) 0x82 DTS фра (Французский) 8146.013 768 782 029 824 4 582 206
00010.M2TS 4355 (0x1103) 0x82 DTS ITA (Итальянский) 8146.013 768 782 029 824 4 582 206
00010.M2TS 4356 (0x1104) 0x82 DTS DEU (Немецкий) 8146.013 768 782 029 824 4 582 206
00010.M2TS 4357 (0x1105) 0x82 DTS спа (Испанский) 8146.013 768 782 029 824 4 582 206
00010.M2TS 4358 (0x1106) 0x82 DTS POR (Португальский) 8146.013 768 782 029 824 4 582 206
00010.M2TS 4359 (0x1107) 0x82 DTS спа (Испанский) 8146.013 768 782 029 824 4 582 206
00010.M2TS 4360 (0x1108) 0x82 DTS рус (русский) 8146.013 768 782 029 824 4 582 206
00010.M2TS 4608 (0x1200) 0x90 PGS JPN (японский) 8146.013 23 23 774 868 139 843
00010.M2TS 4609 (0x1201) 0x90 PGS англ (Английский) 8146.013 40 41 063 520 234 381
00010.M2TS 4610 (0x1202) 0x90 PGS фра (Французский) 8146.013 41 41 906 426 238 206
00010.M2TS 4611 (0x1203) 0x90 PGS ITA (Итальянский) 8146.013 38 39 125 975 223 268
00010.M2TS 4612 (0x1204) 0x90 PGS DEU (Немецкий) 8146.013 45 46 121 522 261 063
00010.M2TS 4613 (0x1205) 0x90 PGS спа (Испанский) 8146.013 39 39 881 870 227 360
00010.M2TS 4614 (0x1206) 0x90 PGS POR (Португальский) 8146.013 32 32 269 178 185 279
00010.M2TS 4615 (0x1207) 0x90 PGS спа (Испанский) 8146.013 38 38 896 659 222 007
00010.M2TS 4616 (0x1208) 0x90 PGS дан (Датский) 8146.013 34 34 652 116 198 937
00010.M2TS 4617 (0x1209) 0x90 PGS НЛД (Голландский) 8146.013 32 32 129 700 185 229
00010.M2TS 4618 (0x120A) 0x90 PGS плавник (Финский) 8146.013 29 29 032 832 167 852
00010.M2TS 4619 (0x120B) 0x90 PGS ни (Норвежский) 8146.013 30 30 992 350 179 097
00010.M2TS 4620 (0x120C) 0x90 PGS SWE (Шведский) 8146.013 34 34 536 623 198 305
00010.M2TS 4621 (0x120D) 0x90 PGS JPN (японский) 8146.013 0 114 514 706
00010.M2TS 4622 (0x120E) 0x90 PGS фра (Французский) 8146.013 0 52 116 317
00010.M2TS 4623 (0x120F) 0x90 PGS ITA (Итальянский) 8146.013 0 109 098 653
00010.M2TS 4624 (0x1210) 0x90 PGS DEU (Немецкий) 8146.013 0 51 147 312
00010.M2TS 4625 (0x1211) 0x90 PGS спа (Испанский) 8146.013 0 77 479 475
00010.M2TS 4626 (0x1212) 0x90 PGS POR (Португальский) 8146.013 0 23 088 139
00010.M2TS 4627 (0x1213) 0x90 PGS спа (Испанский) 8146.013 0 69 142 411
00010.M2TS 4628 (0x1214) 0x90 PGS рус (русский) 8146.013 0 167 026 1 002

<---- END ФОРУМ ПАСТА ---->

Быстрый резюме:

Название диска: ПРАЗДНИК
Диск Размер: 32 977 205 068 байт
Защита: AACS
BD-Java: Да
Плейлист: 00849.MPLS
Размер: 32 276 066 304 байт
Длина: 2:15:46.138
Всего Поток: 31,70 Мбит
Видео: VC-1 видео / 19546 кбит / 1080p / 23976 кадров в секунду / 16:09 / Расширенный профиля 3
Аудио: японский / DTS аудио / 5.1 / 48 кГц / 768 кбит / 24-бит
Аудио: Английский / DTS-HD Master Audio / 5.1 / 48 кГц / 3409 кбит / 24-бит (DTS Core: 5.1 / 48 кГц / 1509 кбит / 24-бит)
Аудио: французский / DTS аудио / 5.1 / 48 кГц / 768 кбит / 24-бит
Аудио: Итальянский / DTS аудио / 5.1 / 48 кГц / 768 кбит / 24-бит
Аудио: Немецкий / DTS аудио / 5.1 / 48 кГц / 768 кбит / 24-бит
Аудио: Испанский / DTS аудио / 5.1 / 48 кГц / 768 кбит / 24-бит
Аудио: Португальский / DTS аудио / 5.1 / 48 кГц / 768 кбит / 24-бит
Аудио: Испанский / DTS аудио / 5.1 / 48 кГц / 768 кбит / 24-бит
Аудио: Русский / DTS аудио / 5.1 / 48 кГц / 768 кбит / 24-бит
Субтитров: Японский / 23348 кбит
Субтитров: Английский / 40327 кбит
Субтитров: Французский / 41155 кбит
Субтитры: Итальянский / 38424 кбит
Субтитров: Немецкий / 45294 кбит
Субтитры: Испанский / 39166 кбит
Субтитров: Португальский / 31690 кбит
Субтитры: Испанский / 38199 кбит
Субтитров: датский / 34030 кбит
Субтитров: Голландский / 31553 кбит
Субтитры: Финские / 28512 кбит
Субтитров: Норвежский / 30436 кбит
Субтитров: шведский / 33917 кбит
Субтитров: Японский / 0112 кбит
Субтитров: Французский / 0051 кбит
Субтитров: итальянский / 0107 кбит
Субтитров: Немецкий / 0050 кбит
Субтитров: Испанский / 0076 кбит
Субтитров: Португальский / 0023 кбит
Субтитров: Испанский / 0068 кбит
Субтитров: русский / 0164 кбит

********************
Плейлист: 00800.MPLS
********************

<--- Начало Форумы ПАСТА --->

Total Video
Название Кодек Длина фильма Размер диска Размер Качество Поток основная звуковая дорожка вторичного аудио трек
-------------------------------------------------- -------------------------------------------------
00800.MPLS VC-1 2:15:40 32 264 595 840 32 977 205 068 31,71 19,56 DTS 5.1 768Kbps (48kHz/24-bit)

DISC INFO:

Название диска: ПРАЗДНИК
Диск Размер: 32 977 205 068 байт
Защита: AACS
BD-Java: Да
BDInfo: 0.5.8

ПЛЕЙЛИСТ ОТЧЕТ:

Имя: 00800.MPLS
Длина: 2:15:40.090 (час: мин: s.ms)
Размер: 32 264 595 840 байт
Всего Поток: 31,71 Мбит

ВИДЕО:

Кодек Поток Описание
-----------------------
VC-1 видео 19557 кбит 1080p / 23976 кадров в секунду / 16:09 / Расширенный профиля 3

АУДИО:

Кодек Язык Поток Описание
-------------------------------
DTS аудио Японский 768 кбит 5.1 / 48 кГц / 768 кбит / 24-бит
DTS-HD Master Audio English 3409 кбит 5.1 / 48 кГц / 3409 кбит / 24-бит (DTS Core: 5.1 / 48 кГц / 1509 кбит / 24-бит)
DTS аудио Французский 768 кбит 5.1 / 48 кГц / 768 кбит / 24-бит
DTS аудио итальянские 768 кбит 5.1 / 48 кГц / 768 кбит / 24-бит
DTS аудио немецкие 768 кбит 5.1 / 48 кГц / 768 кбит / 24-бит
DTS аудио Испанский 768 кбит 5.1 / 48 кГц / 768 кбит / 24-бит
DTS аудио Португальский 768 кбит 5.1 / 48 кГц / 768 кбит / 24-бит
DTS аудио Испанский 768 кбит 5.1 / 48 кГц / 768 кбит / 24-бит
DTS аудио России 768 кбит 5.1 / 48 кГц / 768 кбит / 24-бит

Субтитры:

Кодек Язык Поток Описание
-------------------------------
Презентация Графика Японская 23366 кбит
Презентация Графика Английский 40357 кбит
Презентация Графика французские 41180 кбит
Презентация Графика Итальянский 38448 кбит
Презентация Графика Немецкий 45322 кбит
Презентация Графика Испанский 39183 кбит
Презентация Графика Португальский 31700 кбит
Презентация Графика Испанский 38227 кбит
Презентация Графика Датский 34050 кбит
Презентация Графика Голландский 31572 кбит
Презентация Графика Финский 28528 кбит
Презентация Графика Норвежский 30451 кбит
Презентация Графика Шведский 33935 кбит
Презентация Графика Японская 0113 кбит
Презентация Графика Французский 0047 кбит
Презентация Графика Итальянский 0102 кбит
Презентация Графика Немецкий 0045 кбит
Презентация Графика Испанский 0063 кбит
Презентация Графика Португальский 0009 кбит
Презентация Графика Испанский 0068 кбит
Презентация Графика России 0158 кбит

ФАЙЛЫ:

Имя Время В Время Размер Всего Поток
----------------------------------
00010.M2TS 0:00:00.000 2:15:40.090 32 264 595 840 31 709

ГЛАВЫ:

Количество Время В Длина Средняя Видео курс Макс 1-Sec Rate Макс 1-Sec Время Макс 5-Sec Rate Макс 5-Sec Время Макс 10Sec Оценить Макс 10Sec Время Средняя Размер кадра Макс Размер кадра Максимальная частота Время
-------------------------------------------------- -------------------------------------------------- -------------------------------------------------- ---------
1 0:00:00.000 0:05:44.344 20 226 кбит 32 750 кбит 00:03:13.192 24 116 кбит 00:03:11.274 23 099 кбит 00:03:13.776 105 652 байт 602 127 байт 00:04:43.741
2 0:05:44.344 0:04:01.866 21 453 кбит 30 572 кбит 00:06:19.295 23 879 кбит 00:06:19.212 23 035 кбит 00:09:19.725 111 844 байт 509 209 байт 00:09:14.512
3 0:09:46.210 0:01:07.192 20 216 кбит 29 611 кбит 00:10:29.086 23 290 кбит 00:10:08.316 22 782 кбит 00:10:28.753 105 527 байт 352 605 байт 00:10:29.962
4 0:10:53.402 0:05:06.723 21 889 кбит 30 390 кбит 00:12:25.578 23 598 кбит 00:12:25.536 22 806 кбит 00:13:47.284 114 148 байт 587 298 байт 00:13:51.705
5 0:16:00.125 0:02:25.812 21 698 кбит 30 616 кбит 00:16:36.245 24 056 кбит 00:17:54.406 22 960 кбит 00:17:54.990 113 123 байт 483 325 байт 00:16:13.931
6 0:18:25.938 0:05:45.345 21 169 кбит 31 085 кбит 00:22:51.787 23 907 кбит 00:22:47.783 22 899 кбит 00:23:47.926 110 367 байт 513 167 байт 00:22:52.162
7 0:24:11.283 0:04:15.797 20 421 кбит 33 132 кбит 00:26:43.184 24 174 кбит 00:26:42.767 23 127 кбит 00:26:43.018 106 467 байт 669 001 байт 00:25:57.013
8 0:28:27.080 0:04:40.321 21 141 кбит 31 598 кбит 00:31:40.106 23 963 кбит 00:31:40.106 22 955 кбит 00:29:45.492 110 217 байт 660 018 байт 00:28:48.643
9 0:33:07.402 0:05:38.379 20 657 кбит 32 550 кбит 00:34:58.054 23 934 кбит 00:38:07.952 23 011 кбит 00:38:18.879 107 694 байт 604 659 байт 00:35:22.829
10 0:38:45.781 0:09:16.055 18 993 кбит 29 775 кбит 00:45:35.607 23 656 кбит 00:46:30.245 22 556 кбит 00:42:01.310 99 154 байт 471 987 байт 00:41:53.177
11 0:48:01.837 0:04:24.847 21 556 кбит 30 591 кбит 00:52:01.743 24 106 кбит 00:48:06.758 23 007 кбит 00:50:20.809 112 384 байта 568 998 байт 00:48:46.757
12 0:52:26.685 0:03:31.586 18 558 кбит 32 322 кбит 00:52:42.617 22 705 кбит 00:52:32.315 21 145 кбит 00:54:39.734 97 177 байт 467 386 байт 00:54:45.615
13 0:55:58.271 0:04:05.453 21 052 кбит 30 831 кбит 00:56:56.913 24 336 кбит 00:56:24.255 22 918 кбит 00:56:24.255 109 757 байт 505 853 байт 00:59:19.681
14 1:00:03.725 0:02:24.561 20 699 кбит 28 466 кбит 01:01:35.900 23 841 кбит 01:00:48.936 22 846 кбит 01:01:42.490 107 917 байт 467 502 байт 01:01:42.949
15 1:02:28.286 0:06:31.391 21 000 кбит 31 919 кбит 01:05:14.452 23 999 кбит 01:04:36.622 23 118 кбит 01:03:10.828 109 485 байт 652 797 байт 01:05:15.244
16 1:08:59.677 0:02:42.954 20 361 кбит 31 307 кбит 01:09:27.037 23 621 кбит 01:09:15.192 22 556 кбит 01:09:31.709 106 153 байт 513 754 байт 01:09:27.913
17 1:11:42.631 0:04:08.373 18 413 кбит 29 623 кбит 01:12:26.925 23 179 кбит 01:12:44.318 22 613 кбит 01:11:48.470 95 999 байт 374 413 байт 01:12:27.551
18 1:15:51.004 0:04:20.510 18 516 кбит 28 184 кбит 01:16:16.947 24 228 кбит 01:16:12.943 22 936 кбит 01:16:07.854 96 534 байт 444 517 байт 01:19:47.532
19 1:20:11.515 0:02:01.579 19 478 кбит 27 295 кбит 01:21:43.899 23 797 кбит 01:21:39.561 21 915 кбит 01:21:34.890 101 548 байт 431 635 байт 01:21:44.399
20 1:22:13.094 0:02:37.448 20 286 кбит 28 579 кбит 01:22:57.764 24 039 кбит 01:22:25.273 23 149 кбит 01:22:21.853 105 762 байт 427 599 байт 01:23:09.693
21 1:24:50.543 0:03:20.199 17 184 кбит 28 823 кбит 01:26:57.462 20 548 кбит 01:25:02.555 19 405 кбит 01:27:10.183 89 588 байт 364 226 байт 01:27:58.523
22 1:28:10.743 0:03:19.407 18 254 кбит 27 945 кбит 01:30:22.959 23 543 кбит 01:30:53.364 23 058 кбит 01:30:54.157 95 168 байт 419 465 байт 01:30:23.251
23 1:31:30.151 0:02:24.477 20 721 кбит 31 485 кбит 01:33:04.954 23 777 кбит 01:33:04.370 23 014 кбит 01:33:04.954 108 030 байт 516 215 байт 01:33:08.207
24 1:33:54.629 0:02:31.192 21 687 кбит 31 129 кбит 01:36:01.589 23 564 кбит 01:34:08.559 22 814 кбит 01:36:01.255 113 067 байт 579 426 байт 01:34:08.601
25 1:36:25.821 0:04:42.115 20 944 кбит 32 629 кбит 01:36:30.159 24 252 кбит 01:36:30.326 22 922 кбит 01:37:54.493 109 194 байт 612 425 байт 01:36:31.035
26 1:41:07.936 0:08:02.440 18 403 кбит 26 816 кбит 01:45:37.456 23 333 кбит 01:44:11.745 22 989 кбит 01:44:08.283 96 028 байт 323 532 байт 01:47:53.717
27 1:49:10.377 0:13:31.435 18 501 кбит 30 172 кбит 01:49:24.766 23 830 кбит 02:00:11.370 22 805 кбит 01:51:16.961 96 457 байт 422 965 байт 02:01:53.514
28 2:02:41.812 0:12:58.277 15 874 кбит 32 293 кбит 02:06:49.893 23 996 кбит 02:06:22.157 22 915 кбит 02:06:23.576 82 833 байт 661 230 байт 02:06:46.432

STREAM ДИАГНОСТИКА:

Файл ПИД Тип Кодек Язык секунд Битрейт Bytes Пакеты
-------------------------------------------------- --------------------
00010.M2TS 4113 (0x1011) 0xEA VC-1 8146.013 19 546 19 903 057 016 108 286 803
00010.M2TS 4352 (0x1100) 0x82 DTS JPN (японский) 8146.013 768 782 029 824 4 582 206
00010.M2TS 4353 (0x1101) 0x86 DTS-HD MA англ (Английский) 8146.013 3 409 3 470 938 308 20 135 608
00010.M2TS 4354 (0x1102) 0x82 DTS фра (Французский) 8146.013 768 782 029 824 4 582 206
00010.M2TS 4355 (0x1103) 0x82 DTS ITA (Итальянский) 8146.013 768 782 029 824 4 582 206
00010.M2TS 4356 (0x1104) 0x82 DTS DEU (Немецкий) 8146.013 768 782 029 824 4 582 206
00010.M2TS 4357 (0x1105) 0x82 DTS спа (Испанский) 8146.013 768 782 029 824 4 582 206
00010.M2TS 4358 (0x1106) 0x82 DTS POR (Португальский) 8146.013 768 782 029 824 4 582 206
00010.M2TS 4359 (0x1107) 0x82 DTS спа (Испанский) 8146.013 768 782 029 824 4 582 206
00010.M2TS 4360 (0x1108) 0x82 DTS рус (русский) 8146.013 768 782 029 824 4 582 206
00010.M2TS 4608 (0x1200) 0x90 PGS JPN (японский) 8146.013 23 23 774 868 139 843
00010.M2TS 4609 (0x1201) 0x90 PGS англ (Английский) 8146.013 40 41 063 520 234 381
00010.M2TS 4610 (0x1202) 0x90 PGS фра (Французский) 8146.013 41 41 906 426 238 206
00010.M2TS 4611 (0x1203) 0x90 PGS ITA (Итальянский) 8146.013 38 39 125 975 223 268
00010.M2TS 4612 (0x1204) 0x90 PGS DEU (Немецкий) 8146.013 45 46 121 522 261 063
00010.M2TS 4613 (0x1205) 0x90 PGS спа (Испанский) 8146.013 39 39 881 870 227 360
00010.M2TS 4614 (0x1206) 0x90 PGS POR (Португальский) 8146.013 32 32 269 178 185 279
00010.M2TS 4615 (0x1207) 0x90 PGS спа (Испанский) 8146.013 38 38 896 659 222 007
00010.M2TS 4616 (0x1208) 0x90 PGS дан (Датский) 8146.013 34 34 652 116 198 937
00010.M2TS 4617 (0x1209) 0x90 PGS НЛД (Голландский) 8146.013 32 32 129 700 185 229
00010.M2TS 4618 (0x120A) 0x90 PGS плавник (Финский) 8146.013 29 29 032 832 167 852
00010.M2TS 4619 (0x120B) 0x90 PGS ни (Норвежский) 8146.013 30 30 992 350 179 097
00010.M2TS 4620 (0x120C) 0x90 PGS SWE (Шведский) 8146.013 34 34 536 623 198 305
00010.M2TS 4621 (0x120D) 0x90 PGS JPN (японский) 8146.013 0 114 514 706
00010.M2TS 4622 (0x120E) 0x90 PGS фра (Французский) 8146.013 0 52 116 317
00010.M2TS 4623 (0x120F) 0x90 PGS ITA (Итальянский) 8146.013 0 109 098 653
00010.M2TS 4624 (0x1210) 0x90 PGS DEU (Немецкий) 8146.013 0 51 147 312
00010.M2TS 4625 (0x1211) 0x90 PGS спа (Испанский) 8146.013 0 77 479 475
00010.M2TS 4626 (0x1212) 0x90 PGS POR (Португальский) 8146.013 0 23 088 139
00010.M2TS 4627 (0x1213) 0x90 PGS спа (Испанский) 8146.013 0 69 142 411
00010.M2TS 4628 (0x1214) 0x90 PGS рус (русский) 8146.013 0 167 026 1 002

<---- END ФОРУМ ПАСТА ---->

Быстрый резюме:

Название диска: ПРАЗДНИК
Диск Размер: 32 977 205 068 байт
Защита: AACS
BD-Java: Да
Плейлист: 00800.MPLS
Размер: 32 264 595 840 байт
Длина: 2:15:40.090
Всего Поток: 31,71 Мбит
Видео: VC-1 видео / 19557 кбит / 1080p / 23976 кадров в секунду / 16:09 / Расширенный профиля 3
Аудио: японский / DTS аудио / 5.1 / 48 кГц / 768 кбит / 24-бит
Аудио: Английский / DTS-HD Master Audio / 5.1 / 48 кГц / 3409 кбит / 24-бит (DTS Core: 5.1 / 48 кГц / 1509 кбит / 24-бит)
Аудио: французский / DTS аудио / 5.1 / 48 кГц / 768 кбит / 24-бит
Аудио: Итальянский / DTS аудио / 5.1 / 48 кГц / 768 кбит / 24-бит
Аудио: Немецкий / DTS аудио / 5.1 / 48 кГц / 768 кбит / 24-бит
Аудио: Испанский / DTS аудио / 5.1 / 48 кГц / 768 кбит / 24-бит
Аудио: Португальский / DTS аудио / 5.1 / 48 кГц / 768 кбит / 24-бит
Аудио: Испанский / DTS аудио / 5.1 / 48 кГц / 768 кбит / 24-бит
Аудио: Русский / DTS аудио / 5.1 / 48 кГц / 768 кбит / 24-бит
Субтитров: Японский / 23366 кбит
Субтитров: Английский / 40357 кбит
Субтитров: Французский / 41180 кбит
Субтитры: Итальянский / 38448 кбит
Субтитров: Немецкий / 45322 кбит
Субтитры: Испанский / 39183 кбит
Субтитров: Португальский / 31700 кбит
Субтитры: Испанский / 38227 кбит
Субтитров: датский / 34050 кбит
Субтитров: Голландский / 31572 кбит
Субтитры: Финские / 28528 кбит
Субтитров: Норвежский / 30451 кбит
Субтитров: шведский / 33935 кбит
Субтитров: Японский / 0113 кбит
Субтитров: Французский / 0047 кбит
Субтитров: итальянский / 0102 кбит
Субтитров: Немецкий / 0045 кбит
Субтитров: Испанский / 0063 кбит
Субтитров: Португальский / 0009 кбит
Субтитров: Испанский / 0068 кбит
Субтитров: русский / 0158 кбит

********************
Плейлист: 00801.MPLS
********************

<--- Начало Форумы ПАСТА --->

Total Video
Название Кодек Длина фильма Размер диска Размер Качество Поток основная звуковая дорожка вторичного аудио трек
-------------------------------------------------- -------------------------------------------------
00801.MPLS VC-1 2:15:40 32 264 595 840 32 977 205 068 31,71 19,56 DTS 5.1 768Kbps (48kHz/24-bit)

DISC INFO:

Название диска: ПРАЗДНИК
Диск Размер: 32 977 205 068 байт
Защита: AACS
BD-Java: Да
BDInfo: 0.5.8

ПЛЕЙЛИСТ ОТЧЕТ:

Имя: 00801.MPLS
Длина: 2:15:40.090 (час: мин: s.ms)
Размер: 32 264 595 840 байт
Всего Поток: 31,71 Мбит

ВИДЕО:

Кодек Поток Описание
-----------------------
VC-1 видео 19557 кбит 1080p / 23976 кадров в секунду / 16:09 / Расширенный профиля 3

АУДИО:

Кодек Язык Поток Описание
-------------------------------
DTS аудио Японский 768 кбит 5.1 / 48 кГц / 768 кбит / 24-бит
DTS-HD Master Audio English 3409 кбит 5.1 / 48 кГц / 3409 кбит / 24-бит (DTS Core: 5.1 / 48 кГц / 1509 кбит / 24-бит)
DTS аудио Французский 768 кбит 5.1 / 48 кГц / 768 кбит / 24-бит
DTS аудио итальянские 768 кбит 5.1 / 48 кГц / 768 кбит / 24-бит
DTS аудио немецкие 768 кбит 5.1 / 48 кГц / 768 кбит / 24-бит
DTS аудио Испанский 768 кбит 5.1 / 48 кГц / 768 кбит / 24-бит
DTS аудио Португальский 768 кбит 5.1 / 48 кГц / 768 кбит / 24-бит
DTS аудио Испанский 768 кбит 5.1 / 48 кГц / 768 кбит / 24-бит
DTS аудио России 768 кбит 5.1 / 48 кГц / 768 кбит / 24-бит

Субтитры:

Кодек Язык Поток Описание
-------------------------------
Презентация Графика Японская 23366 кбит
Презентация Графика Английский 40357 кбит
Презентация Графика французские 41180 кбит
Презентация Графика Итальянский 38448 кбит
Презентация Графика Немецкий 45322 кбит
Презентация Графика Испанский 39183 кбит
Презентация Графика Португальский 31700 кбит
Презентация Графика Испанский 38227 кбит
Презентация Графика Датский 34050 кбит
Презентация Графика Голландский 31572 кбит
Презентация Графика Финский 28528 кбит
Презентация Графика Норвежский 30451 кбит
Презентация Графика Шведский 33935 кбит
Презентация Графика Японская 0113 кбит
Презентация Графика Французский 0047 кбит
Презентация Графика Итальянский 0102 кбит
Презентация Графика Немецкий 0045 кбит
Презентация Графика Испанский 0063 кбит
Презентация Графика Португальский 0009 кбит
Презентация Графика Испанский 0068 кбит
Презентация Графика России 0158 кбит

ФАЙЛЫ:

Имя Время В Время Размер Всего Поток
----------------------------------
00010.M2TS 0:00:00.000 2:15:40.090 32 264 595 840 31 709

ГЛАВЫ:

Количество Время В Длина Средняя Видео курс Макс 1-Sec Rate Макс 1-Sec Время Макс 5-Sec Rate Макс 5-Sec Время Макс 10Sec Оценить Макс 10Sec Время Средняя Размер кадра Макс Размер кадра Максимальная частота Время
-------------------------------------------------- -------------------------------------------------- -------------------------------------------------- ---------
1 0:00:00.000 2:15:40.090 19 557 кбит 33 132 кбит 00:26:43.184 24 336 кбит 00:56:24.255 23 149 кбит 01:22:21.853 102 009 байт 669 001 байт 00:25:57.013

STREAM ДИАГНОСТИКА:

Файл ПИД Тип Кодек Язык секунд Битрейт Bytes Пакеты
-------------------------------------------------- --------------------
00010.M2TS 4113 (0x1011) 0xEA VC-1 8146.013 19 546 19 903 057 016 108 286 803
00010.M2TS 4352 (0x1100) 0x82 DTS JPN (японский) 8146.013 768 782 029 824 4 582 206
00010.M2TS 4353 (0x1101) 0x86 DTS-HD MA англ (Английский) 8146.013 3 409 3 470 938 308 20 135 608
00010.M2TS 4354 (0x1102) 0x82 DTS фра (Французский) 8146.013 768 782 029 824 4 582 206
00010.M2TS 4355 (0x1103) 0x82 DTS ITA (Итальянский) 8146.013 768 782 029 824 4 582 206
00010.M2TS 4356 (0x1104) 0x82 DTS DEU (Немецкий) 8146.013 768 782 029 824 4 582 206
00010.M2TS 4357 (0x1105) 0x82 DTS спа (Испанский) 8146.013 768 782 029 824 4 582 206
00010.M2TS 4358 (0x1106) 0x82 DTS POR (Португальский) 8146.013 768 782 029 824 4 582 206
00010.M2TS 4359 (0x1107) 0x82 DTS спа (Испанский) 8146.013 768 782 029 824 4 582 206
00010.M2TS 4360 (0x1108) 0x82 DTS рус (русский) 8146.013 768 782 029 824 4 582 206
00010.M2TS 4608 (0x1200) 0x90 PGS JPN (японский) 8146.013 23 23 774 868 139 843
00010.M2TS 4609 (0x1201) 0x90 PGS англ (Английский) 8146.013 40 41 063 520 234 381
00010.M2TS 4610 (0x1202) 0x90 PGS фра (Французский) 8146.013 41 41 906 426 238 206
00010.M2TS 4611 (0x1203) 0x90 PGS ITA (Итальянский) 8146.013 38 39 125 975 223 268
00010.M2TS 4612 (0x1204) 0x90 PGS DEU (Немецкий) 8146.013 45 46 121 522 261 063
00010.M2TS 4613 (0x1205) 0x90 PGS спа (Испанский) 8146.013 39 39 881 870 227 360
00010.M2TS 4614 (0x1206) 0x90 PGS POR (Португальский) 8146.013 32 32 269 178 185 279
00010.M2TS 4615 (0x1207) 0x90 PGS спа (Испанский) 8146.013 38 38 896 659 222 007
00010.M2TS 4616 (0x1208) 0x90 PGS дан (Датский) 8146.013 34 34 652 116 198 937
00010.M2TS 4617 (0x1209) 0x90 PGS НЛД (Голландский) 8146.013 32 32 129 700 185 229
00010.M2TS 4618 (0x120A) 0x90 PGS плавник (Финский) 8146.013 29 29 032 832 167 852
00010.M2TS 4619 (0x120B) 0x90 PGS ни (Норвежский) 8146.013 30 30 992 350 179 097
00010.M2TS 4620 (0x120C) 0x90 PGS SWE (Шведский) 8146.013 34 34 536 623 198 305
00010.M2TS 4621 (0x120D) 0x90 PGS JPN (японский) 8146.013 0 114 514 706
00010.M2TS 4622 (0x120E) 0x90 PGS фра (Французский) 8146.013 0 52 116 317
00010.M2TS 4623 (0x120F) 0x90 PGS ITA (Итальянский) 8146.013 0 109 098 653
00010.M2TS 4624 (0x1210) 0x90 PGS DEU (Немецкий) 8146.013 0 51 147 312
00010.M2TS 4625 (0x1211) 0x90 PGS спа (Испанский) 8146.013 0 77 479 475
00010.M2TS 4626 (0x1212) 0x90 PGS POR (Португальский) 8146.013 0 23 088 139
00010.M2TS 4627 (0x1213) 0x90 PGS спа (Испанский) 8146.013 0 69 142 411
00010.M2TS 4628 (0x1214) 0x90 PGS рус (русский) 8146.013 0 167 026 1 002

<---- END ФОРУМ ПАСТА ---->

Быстрый резюме:

Название диска: ПРАЗДНИК
Диск Размер: 32 977 205 068 байт
Защита: AACS
BD-Java: Да
Плейлист: 00801.MPLS
Размер: 32 264 595 840 байт
Длина: 2:15:40.090
Всего Поток: 31,71 Мбит
Видео: VC-1 видео / 19557 кбит / 1080p / 23976 кадров в секунду / 16:09 / Расширенный профиля 3
Аудио: японский / DTS аудио / 5.1 / 48 кГц / 768 кбит / 24-бит
Аудио: Английский / DTS-HD Master Audio / 5.1 / 48 кГц / 3409 кбит / 24-бит (DTS Core: 5.1 / 48 кГц / 1509 кбит / 24-бит)
Аудио: французский / DTS аудио / 5.1 / 48 кГц / 768 кбит / 24-бит
Аудио: Итальянский / DTS аудио / 5.1 / 48 кГц / 768 кбит / 24-бит
Аудио: Немецкий / DTS аудио / 5.1 / 48 кГц / 768 кбит / 24-бит
Аудио: Испанский / DTS аудио / 5.1 / 48 кГц / 768 кбит / 24-бит
Аудио: Португальский / DTS аудио / 5.1 / 48 кГц / 768 кбит / 24-бит
Аудио: Испанский / DTS аудио / 5.1 / 48 кГц / 768 кбит / 24-бит
Аудио: Русский / DTS аудио / 5.1 / 48 кГц / 768 кбит / 24-бит
Субтитров: Японский / 23366 кбит
Субтитров: Английский / 40357 кбит
Субтитров: Французский / 41180 кбит
Субтитры: Итальянский / 38448 кбит
Субтитров: Немецкий / 45322 кбит
Субтитры: Испанский / 39183 кбит
Субтитров: Португальский / 31700 кбит
Субтитры: Испанский / 38227 кбит
Субтитров: датский / 34050 кбит
Субтитров: Голландский / 31572 кбит
Субтитры: Финские / 28528 кбит
Субтитров: Норвежский / 30451 кбит
Субтитров: шведский / 33935 кбит
Субтитров: Японский / 0113 кбит
Субтитров: Французский / 0047 кбит
Субтитров: итальянский / 0102 кбит
Субтитров: Немецкий / 0045 кбит
Субтитров: Испанский / 0063 кбит
Субтитров: Португальский / 0009 кбит
Субтитров: Испанский / 0068 кбит
Субтитров: русский / 0158 кбит

********************
Плейлист: 00021.MPLS
********************

<--- Начало Форумы ПАСТА --->

Total Video
Название Кодек Длина фильма Размер диска Размер Качество Поток основная звуковая дорожка вторичного аудио трек
-------------------------------------------------- -------------------------------------------------
00021.MPLS VC-1 0:01:05 138 909 696 32 977 205 068 17,04 15,56 DD AC3 5.1 640 Кбит

DISC INFO:

Название диска: ПРАЗДНИК
Диск Размер: 32 977 205 068 байт
Защита: AACS
BD-Java: Да
BDInfo: 0.5.8

ПЛЕЙЛИСТ ОТЧЕТ:

Имя: 00021.MPLS
Длина: 0:01:05.231 (час: мин: s.ms)
Размер: 138 909 696 байт
Всего Поток: 17,04 Мбит

ВИДЕО:

Кодек Поток Описание
-----------------------
VC-1 видео 15564 кбит 1080p / 23976 кадров в секунду / 16:09 / Расширенный профиля 3

АУДИО:

Кодек Язык Поток Описание
-------------------------------
Dolby Digital Audio English 640 кбит 5.1 / 48 кГц / 640 кбит / DN-4DB

ФАЙЛЫ:

Имя Время В Время Размер Всего Поток
----------------------------------
00012.M2TS 0:00:00.000 0:01:05.231 138 909 696 17 036

ГЛАВЫ:

Количество Время В Длина Средняя Видео курс Макс 1-Sec Rate Макс 1-Sec Время Макс 5-Sec Rate Макс 5-Sec Время Макс 10Sec Оценить Макс 10Sec Время Средняя Размер кадра Макс Размер кадра Максимальная частота Время
-------------------------------------------------- -------------------------------------------------- -------------------------------------------------- ---------
1 0:00:00.000 0:01:05.231 15 564 кбит 27 832 кбит 00:00:05.672 20 417 кбит 00:00:56.222 18 588 кбит 00:00:05.630 81 142 байт 408 392 байт 00:00:50.592

STREAM ДИАГНОСТИКА:

Файл ПИД Тип Кодек Язык секунд Битрейт Bytes Пакеты
-------------------------------------------------- --------------------
00012.M2TS 4113 (0x1011) 0xEA VC-1 65107 15 594 126 905 528 690 662
00012.M2TS 4352 (0x1100) 0x81 AC3 ENG (английский) 65107 641 5 219 840 30 585

<---- END ФОРУМ ПАСТА ---->

Быстрый резюме:

Название диска: ПРАЗДНИК
Диск Размер: 32 977 205 068 байт
Защита: AACS
BD-Java: Да
Плейлист: 00021.MPLS
Размер: 138 909 696 байт
Длина: 0:01:05.231
Всего Поток: 17,04 Мбит
Видео: VC-1 видео / 15564 кбит / 1080p / 23976 кадров в секунду / 16:09 / Расширенный профиля 3
Аудио: Английский / Dolby Digital Audio / 5.1 / 48 кГц / 640 кбит / DN-4 дБ

********************
Плейлист: 00022.MPLS
********************

<--- Начало Форумы ПАСТА --->

Total Video
Название Кодек Длина фильма Размер диска Размер Качество Поток основная звуковая дорожка вторичного аудио трек
-------------------------------------------------- -------------------------------------------------
00022.MPLS VC-1 0:01:00 127 027 200 32 977 205 068 16,92 15,45 DD AC3 5.1 640 Кбит

DISC INFO:

Название диска: ПРАЗДНИК
Диск Размер: 32 977 205 068 байт
Защита: AACS
BD-Java: Да
BDInfo: 0.5.8

ПЛЕЙЛИСТ ОТЧЕТ:

Имя: 00022.MPLS
Длина: 0:01:00.060 (час: мин: s.ms)
Размер: 127 027 200 байт
Всего Поток: 16,92 Мбит

ВИДЕО:

Кодек Поток Описание
-----------------------
VC-1 видео 15454 кбит 1080p / 23976 кадров в секунду / 16:09 / Расширенный профиля 3

АУДИО:

Кодек Язык Поток Описание
-------------------------------
Dolby Digital Audio English 640 кбит 5.1 / 48 кГц / 640 кбит / DN-4DB

ФАЙЛЫ:

Имя Время В Время Размер Всего Поток
----------------------------------
00013.M2TS 0:00:00.000 0:01:00.060 127 027 200 16 920

ГЛАВЫ:

Количество Время В Длина Средняя Видео курс Макс 1-Sec Rate Макс 1-Sec Время Макс 5-Sec Rate Макс 5-Sec Время Макс 10Sec Оценить Макс 10Sec Время Средняя Размер кадра Макс Размер кадра Максимальная частота Время
-------------------------------------------------- -------------------------------------------------- -------------------------------------------------- ---------
1 0:00:00.000 0:01:00.060 15 454 кбит 24 664 кбит 00:00:37.996 19 419 кбит 00:00:34.951 18 455 кбит 00:00:30.488 80 571 байт 401 880 байт 00:00:23.356

STREAM ДИАГНОСТИКА:

Файл ПИД Тип Кодек Язык секунд Битрейт Bytes Пакеты
-------------------------------------------------- --------------------
00013.M2TS 4113 (0x1011) 0xEA VC-1 59977 15 476 116 022 765 631 428
00013.M2TS 4352 (0x1100) 0x81 AC3 ENG (английский) 59977 641 4 805 120 28 155

<---- END ФОРУМ ПАСТА ---->

Быстрый резюме:

Название диска: ПРАЗДНИК
Диск Размер: 32 977 205 068 байт
Защита: AACS
BD-Java: Да
Плейлист: 00022.MPLS
Размер: 127 027 200 байт
Длина: 0:01:00.060
Всего Поток: 16,92 Мбит
Видео: VC-1 видео / 15454 кбит / 1080p / 23976 кадров в секунду / 16:09 / Расширенный профиля 3
Аудио: Английский / Dolby Digital Audio / 5.1 / 48 кГц / 640 кбит / DN-4 дБ

********************
Плейлист: 00090.MPLS
********************

<--- Начало Форумы ПАСТА --->

Total Video
Название Кодек Длина фильма Размер диска Размер Качество Поток основная звуковая дорожка вторичного аудио трек
-------------------------------------------------- -------------------------------------------------
00090.MPLS MPEG-2 0:00:50 1 386 048 32 977 205 068 0,22 0,08

DISC INFO:

Название диска: ПРАЗДНИК
Диск Размер: 32 977 205 068 байт
Защита: AACS
BD-Java: Да
BDInfo: 0.5.8

ПЛЕЙЛИСТ ОТЧЕТ:

Имя: 00090.MPLS
Длина: 0:00:50.091 (час: мин: s.ms)
Размер: 1 386 048 байт
Всего Поток: 0,22 Мбит

ВИДЕО:

Кодек Поток Описание
-----------------------
MPEG-2 81 кбит 1080p / 23976 кадров в секунду / 16:09

ФАЙЛЫ:

Имя Время В Время Размер Всего Поток
----------------------------------
00157.M2TS 0:00:00.000 0:00:10.010 221 952 89
00157.M2TS 0:00:10.010 0:00:10.009 187 776 75
00157.M2TS 0:00:20.020 0:00:10.010 180 864 72
00157.M2TS 0:00:30.030 0:00:10.009 226 944 91
00157.M2TS 0:00:40.040 0:00:10.009 398 976 160
00157.M2TS 0:00:50.050 0:00:00.041 169 536 32 516

ГЛАВЫ:

Количество Время В Длина Средняя Видео курс Макс 1-Sec Rate Макс 1-Sec Время Макс 5-Sec Rate Макс 5-Sec Время Макс 10Sec Оценить Макс 10Sec Время Средняя Размер кадра Макс Размер кадра Максимальная частота Время
-------------------------------------------------- -------------------------------------------------- -------------------------------------------------- ---------
1 0:00:00.000 0:00:10.010 215 кбит 95 кбит 00:00:09.968 95 кбит 00:00:09.968 95 кбит 00:00:09.968 134 283 байт 150 170 байт 00:00:09.968
2 0:00:10.010 0:00:10.009 89 кбит 89 кбит 00:00:19.978 89 кбит 00:00:19.978 89 кбит 00:00:19.978 111 324 байт 111 324 байт 00:00:29.988
3 0:00:20.020 0:00:10.010 125 кбит 125 кбит 00:00:29.988 125 кбит 00:00:29.988 125 кбит 00:00:29.988 155 979 байт 155 979 байт 00:00:39.998
4 0:00:30.030 0:00:10.009 126 кбит 126 кбит 00:00:39.998 126 кбит 00:00:39.998 126 кбит 00:00:39.998 157 767 байт 157 767 байт 00:00:50.008
5 0:00:40.040 0:00:10.051 1 900 кбит 251 кбит 00:00:39.998 251 кбит 00:00:39.998 251 кбит 00:00:39.998 149 166 байт 157 767 байт 00:00:50.050

STREAM ДИАГНОСТИКА:

Файл ПИД Тип Кодек Язык секунд Битрейт Bytes Пакеты
-------------------------------------------------- --------------------
00157.M2TS 4113 (0x1011) 0x02 MPEG-2 40040 170 851 402 4 631

<---- END ФОРУМ ПАСТА ---->

Быстрый резюме:

Название диска: ПРАЗДНИК
Диск Размер: 32 977 205 068 байт
Защита: AACS
BD-Java: Да
Плейлист: 00090.MPLS
Размер: 1 386 048 байт
Длина: 0:00:50.091
Всего Поток: 0,22 Мбит
Видео: MPEG-2 видео / 81 кбит / 1080p / 23976 кадров в секунду / 16:09

********************
Плейлист: 00065.MPLS
********************

<--- Начало Форумы ПАСТА --->

Total Video
Название Кодек Длина фильма Размер диска Размер Качество Поток основная звуковая дорожка вторичного аудио трек
-------------------------------------------------- -------------------------------------------------
00065.MPLS VC-1 0:00:33 68 130 816 32 977 205 068 16,34 14,89 DD AC3 5.1 640 Кбит

DISC INFO:

Название диска: ПРАЗДНИК
Диск Размер: 32 977 205 068 байт
Защита: AACS
BD-Java: Да
BDInfo: 0.5.8

ПЛЕЙЛИСТ ОТЧЕТ:

Имя: 00065.MPLS
Длина: 0:00:33.366 (час: мин: s.ms)
Размер: 68 130 816 байт
Всего Поток: 16,34 Мбит

ВИДЕО:

Кодек Поток Описание
-----------------------
VC-1 видео 14890 кбит 1080p / 23976 кадров в секунду / 16:09 / Расширенный профиля 3

АУДИО:

Кодек Язык Поток Описание
-------------------------------
Dolby Digital Audio English 640 кбит 5.1 / 48 кГц / 640 кбит / DN-4DB

ФАЙЛЫ:

Имя Время В Время Размер Всего Поток
----------------------------------
00145.M2TS 0:00:00.000 0:00:33.366 68 130 816 16 335

ГЛАВЫ:

Количество Время В Длина Средняя Видео курс Макс 1-Sec Rate Макс 1-Sec Время Макс 5-Sec Rate Макс 5-Sec Время Макс 10Sec Оценить Макс 10Sec Время Средняя Размер кадра Макс Размер кадра Максимальная частота Время
-------------------------------------------------- -------------------------------------------------- -------------------------------------------------- ---------
1 0:00:00.000 0:00:33.366 14 890 кбит 27 647 кбит 00:00:03.294 21 504 кбит 00:00:23.398 18 539 кбит 00:00:02.669 79 930 байт 320 023 байт 00:00:13.513

STREAM ДИАГНОСТИКА:

Файл ПИД Тип Кодек Язык секунд Битрейт Bytes Пакеты
-------------------------------------------------- --------------------
00145.M2TS 4113 (0x1011) 0xEA VC-1 33242 14 946 62 105 360 338 058
00145.M2TS 4352 (0x1100) 0x81 AC3 ENG (английский) 33242 643 2 670 080 15 645

<---- END ФОРУМ ПАСТА ---->

Быстрый резюме:

Название диска: ПРАЗДНИК
Диск Размер: 32 977 205 068 байт
Защита: AACS
BD-Java: Да
Плейлист: 00065.MPLS
Размер: 68 130 816 байт
Длина: 0:00:33.366
Всего Поток: 16,34 Мбит
Видео: VC-1 видео / 14890 кбит / 1080p / 23976 кадров в секунду / 16:09 / Расширенный профиля 3
Аудио: Английский / Dolby Digital Audio / 5.1 / 48 кГц / 640 кбит / DN-4 дБ

********************
Плейлист: 00073.MPLS
********************

<--- Начало Форумы ПАСТА --->

Total Video
Название Кодек Длина фильма Размер диска Размер Качество Поток основная звуковая дорожка вторичного аудио трек
-------------------------------------------------- -------------------------------------------------
00073.MPLS VC-1 0:00:33 67 301 376 32 977 205 068 16,14 14,70 DD AC3 5.1 640 Кбит

DISC INFO:

Название диска: ПРАЗДНИК
Диск Размер: 32 977 205 068 байт
Защита: AACS
BD-Java: Да
BDInfo: 0.5.8

ПЛЕЙЛИСТ ОТЧЕТ:

Имя: 00073.MPLS
Длина: 0:00:33.366 (час: мин: s.ms)
Размер: 67 301 376 байт
Всего Поток: 16,14 Мбит

ВИДЕО:

Кодек Поток Описание
-----------------------
VC-1 видео 14700 кбит 1080p / 23976 кадров в секунду / 16:09 / Расширенный профиля 3

АУДИО:

Кодек Язык Поток Описание
-------------------------------
Dolby Digital Audio English 640 кбит 5.1 / 48 кГц / 640 кбит / DN-4DB

ФАЙЛЫ:

Имя Время В Время Размер Всего Поток
----------------------------------
00144.M2TS 0:00:00.000 0:00:33.366 67 301 376 16 136

ГЛАВЫ:

Количество Время В Длина Средняя Видео курс Макс 1-Sec Rate Макс 1-Sec Время Макс 5-Sec Rate Макс 5-Sec Время Макс 10Sec Оценить Макс 10Sec Время Средняя Размер кадра Макс Размер кадра Максимальная частота Время
-------------------------------------------------- -------------------------------------------------- -------------------------------------------------- ---------
1 0:00:00.000 0:00:33.366 14 700 кбит 27 184 кбит 00:00:03.503 19 938 кбит 00:00:02.794 19 110 кбит 00:00:03.503 78 906 байт 331 770 байт 00:00:12.429

STREAM ДИАГНОСТИКА:

Файл ПИД Тип Кодек Язык секунд Битрейт Bytes Пакеты
-------------------------------------------------- --------------------
00144.M2TS 4113 (0x1011) 0xEA VC-1 33242 14 755 61 309 765 333 724
00144.M2TS 4352 (0x1100) 0x81 AC3 ENG (английский) 33242 643 2 670 080 15 645

<---- END ФОРУМ ПАСТА ---->

Быстрый резюме:

Название диска: ПРАЗДНИК
Диск Размер: 32 977 205 068 байт
Защита: AACS
BD-Java: Да
Плейлист: 00073.MPLS
Размер: 67 301 376 байт
Длина: 0:00:33.366
Всего Поток: 16,14 Мбит
Видео: VC-1 видео / 14700 кбит / 1080p / 23976 кадров в секунду / 16:09 / Расширенный профиля 3
Аудио: Английский / Dolby Digital Audio / 5.1 / 48 кГц / 640 кбит / DN-4 дБ

********************
Плейлист: 00063.MPLS
********************

<--- Начало Форумы ПАСТА --->

Total Video
Название Кодек Длина фильма Размер диска Размер Качество Поток основная звуковая дорожка вторичного аудио трек
-------------------------------------------------- -------------------------------------------------
00063.MPLS MPEG-2 0:00:25 1 333 056 32 977 205 068 0,43 0,18

DISC INFO:

Название диска: ПРАЗДНИК
Диск Размер: 32 977 205 068 байт
Защита: AACS
BD-Java: Да
BDInfo: 0.5.8

ПЛЕЙЛИСТ ОТЧЕТ:

Имя: 00063.MPLS
Длина: 0:00:25.066 (час: мин: s.ms)
Размер: 1 333 056 байт
Всего Поток: 0,43 Мбит

ВИДЕО:

Кодек Поток Описание
-----------------------
MPEG-2 179 кбит 1080p / 23976 кадров в секунду / 16:09

ФАЙЛЫ:

Имя Время В Время Размер Всего Поток
----------------------------------
00140.M2TS 0:00:00.000 0:00:10.010 313 920 126
00140.M2TS 0:00:10.010 0:00:10.009 326 976 131
00140.M2TS 0:00:20.020 0:00:05.004 471 168 378
00140.M2TS 0:00:25.025 0:00:00.041 220 992 42 385

ГЛАВЫ:

Количество Время В Длина Средняя Видео курс Макс 1-Sec Rate Макс 1-Sec Время Макс 5-Sec Rate Макс 5-Sec Время Макс 10Sec Оценить Макс 10Sec Время Средняя Размер кадра Макс Размер кадра Максимальная частота Время
-------------------------------------------------- -------------------------------------------------- -------------------------------------------------- ---------
1 0:00:00.000 0:00:10.010 392 кбит 201 кбит 00:00:09.968 201 кбит 00:00:09.968 201 кбит 00:00:09.968 245 079 байт 251 838 байт 00:00:19.978
2 0:00:10.010 0:00:10.009 167 кбит 333 кбит 00:00:19.978 333 кбит 00:00:19.978 0 кбит 00:00:00.000 208 546 байт 208 546 байт 00:00:24.983
3 0:00:20.020 0:00:05.046 2 383 кбит 661 кбит 00:00:19.978 661 кбит 00:00:19.978 498 кбит 00:00:14.931 214 731 байт 251 838 байт 00:00:19.978

STREAM ДИАГНОСТИКА:

Файл ПИД Тип Кодек Язык секунд Битрейт Bytes Пакеты
-------------------------------------------------- --------------------
00140.M2TS 4113 (0x1011) 0x02 MPEG-2 15.015 483 907 249 4 933

<---- END ФОРУМ ПАСТА ---->

Быстрый резюме:

Название диска: ПРАЗДНИК
Диск Размер: 32 977 205 068 байт
Защита: AACS
BD-Java: Да
Плейлист: 00063.MPLS
Размер: 1 333 056 байт
Длина: 0:00:25.066
Всего Поток: 0,43 Мбит
Видео: MPEG-2 видео / 179 кбит / 1080p / 23976 кадров в секунду / 16:09

********************
Плейлист: 00011.MPLS
********************

<--- Начало Форумы ПАСТА --->

Total Video
Название Кодек Длина фильма Размер диска Размер Качество Поток основная звуковая дорожка вторичного аудио трек
-------------------------------------------------- -------------------------------------------------
00011.MPLS VC-1 0:00:23 64 106 496 32 977 205 068 21,69 20,02 DD AC3 5.1 640 Кбит

DISC INFO:

Название диска: ПРАЗДНИК
Диск Размер: 32 977 205 068 байт
Защита: AACS
BD-Java: Да
BDInfo: 0.5.8

ПЛЕЙЛИСТ ОТЧЕТ:

Имя: 00011.MPLS
Длина: 0:00:23.648 (час: мин: s.ms)
Размер: 64 106 496 байт
Всего Поток: 21,69 Мбит

ВИДЕО:

Кодек Поток Описание
-----------------------
VC-1 видео 20019 кбит 1080p / 23976 кадров в секунду / 16:09 / Расширенный профиля 3

АУДИО:

Кодек Язык Поток Описание
-------------------------------
Dolby Digital Audio English 640 кбит 5.1 / 48 кГц / 640 кбит / DN-4DB

ФАЙЛЫ:

Имя Время В Время Размер Всего Поток
----------------------------------
00000.M2TS 0:00:00.000 0:00:23.648 64 106 496 21 686

ГЛАВЫ:

Количество Время В Длина Средняя Видео курс Макс 1-Sec Rate Макс 1-Sec Время Макс 5-Sec Rate Макс 5-Sec Время Макс 10Sec Оценить Макс 10Sec Время Средняя Размер кадра Макс Размер кадра Максимальная частота Время
-------------------------------------------------- -------------------------------------------------- -------------------------------------------------- ---------
1 0:00:00.000 0:00:23.648 20 019 кбит 43 839 кбит 00:00:07.966 36 473 кбит 00:00:07.048 32 577 кбит 00:00:04.713 108 781 байт 471 987 байт 00:00:08.591

STREAM ДИАГНОСТИКА:

Файл ПИД Тип Кодек Язык секунд Битрейт Bytes Пакеты
-------------------------------------------------- --------------------
00000.M2TS 4113 (0x1011) 0xEA VC-1 23565 20 090 59 176 948 321 957
00000.M2TS 4352 (0x1100) 0x81 AC3 ENG (английский) 23565 643 1 894 400 11 100

<---- END ФОРУМ ПАСТА ---->

Быстрый резюме:

Название диска: ПРАЗДНИК
Диск Размер: 32 977 205 068 байт
Защита: AACS
BD-Java: Да
Плейлист: 00011.MPLS
Размер: 64 106 496 байт
Длина: 0:00:23.648
Всего Поток: 21,69 Мбит
Видео: VC-1 видео / 20019 кбит / 1080p / 23976 кадров в секунду / 16:09 / Расширенный профиля 3
Аудио: Английский / Dolby Digital Audio / 5.1 / 48 кГц / 640 кбит / DN-4 дБ



Скачать Отпуск по обмену через торрент http://i2-imageban-ru.translate.goog/out/2014/03/10/b09c226ca54b1513d77e701f09ffd3a6.png Скачать, смотреть онлайн Отпуск по обмену бесплантно в хорошем качестве Описание: Айрис Симпкинс, автор популярной свадебной колонки в лондонской «Daily Telegraph», живет в очаровательном коттедже в английской ... 9.2 10 5
Info! Золотая раздача, скачанное не засчитывается.
Торрент: Зарегистрирован [2014-03-09 21:53] · скачан: 23 раз
Статус: √ проверено
Размер: 30.71 GB
Как cкачать? Как скачать Отпуск по обмену через торрент | UTorrent

% Раздел Тема Автор DL S | L
Фильмы (BDRip, HDrip-AVC) (48-60 fps) [ 3.95 GB ] Отпуск по обмену / The Holiday | | BDRip-AVC, 60fps, Dub Tiberiumsun69 Скачать
1 | 0
Фильмы [HD 720p, 1080p] (Хороший звук DUB, MVO) [ 18.01 GB ] Отпуск по обмену / The Holiday | DUB | 1080p msltel Скачать
1 | 0
Фильмы [HD 720p, 1080p] (Хороший звук DUB, MVO) [ 6.89 GB ] Отпуск по обмену / The Holiday | DUB | 720p msltel Скачать
1 | 0
R.G. Resident & PiratVoice - Фильмы, Видео [ 3.54 GB ] Отпуск по обмену / The Holiday | Лицензия + Оригинал | HDRip-AVC, Дубляж Лицензия + Оригинал Dean24 Скачать
1 | 0

28-11-2019 20:33  


Отключить вcю реклaмy на сайте, в т.ч. и в плеере онлайн просмотра!

10-03-2014 00:03 Отпуск по обмену Скачать торрент  

как фильм?
отпишитесь кто видел ребят



    Дорогой пользователь! Огромная просьба, поблагодарите релизера, оцените раздачу и оставьте свои комментарий, если Вы скачали Отпуск по обмену через торрент бесплатно!!
    Комментировать посты могут только пользователи прошедшие не сложную регистрацию
    Показать сообщения:    


    Отпуск по обмену через торрент
    Скачать бесплатно Отпуск по обмену
    Отпуск по обмену скачать торрент
    Отпуск по обмену смотреть онлайн
    Cкачать фильм Отпуск по обмену бесплатно
    Отпуск по обмену скачать торрент в хорошем качестве
    Отпуск по обмену смотреть онлайн бесплатно в хорошем качестве
    Вы не можете начинать темы
    Вы не можете отвечать на сообщения
    Вы не можете редактировать свои сообщения
    Вы не можете удалять свои сообщения
    Вы не можете голосовать в опросах
    Вы не можете прикреплять файлы к сообщениям
    Вы можете скачивать файлы
    Отпуск по обмену / The Holiday [2006 г., Комедия, драма, мелодрама, рождество, Дубляж / Blu-Ray EUR ] смотреть онлайн, скачать торрент picoco.icu