Доктор Стрэндж

Лицензия

Добыча

Дубляж

Уэнсдэй

1 сезон

Тор

Дубляж

В эфире

Дубляж

Там, где раки поют

MVO

Властелин колец

1 сезон

Deluxe

pack

Рекомендуем

30

Пиратка

ВАЖНО

ВАЖНО

Ghostwire

Пиратка

jed

RePack

nioh2

RePack

RDR2

RePack

NEED FOR SPEED™ PAYBACK

RePack

скачать торрент

Кинопоиск HD

Острые козырьки 6 сезон

6 сезон

FAR CRY 6

RePack

скачать торрент

Лицензия

скачать торрент

MVO

1

1 сезон

скачать торрент

1 сезон

скачать торрент

Лицензия

  

Сербский фильм / Srpski film / A Serbian Film (Срджан Спасоевич / Srdjan Spasojevic) [2010, Сербия, ужасы, триллер, BDRip 1080p] VO Zamez rus sub [UNCUT]

Сербский фильм через торрент piratbit.org

Размер: 8.89 GB | Добавлен: 8 лет 8 мес. назад | Торрент скачан:408 раз
Смотреть онлайн | Скачать   

10-03-2014 14:29 Сербский фильм Скачать торрент  

В фильме присутствуют сцены жестокости, насилия и ненормативная лексика.
Название: Сербский фильм
Оригинальное название: Srpski film / A Serbian Film
Год выхода: 2010
Выпущено: Сербия
Продолжительность: 01:43:37
Озвучивание: Любительский (одноголосый) [Zamez]
Субтитры: русские, шведские, датские, финские, норвежские
Жанр: ужасы, триллер
Режиссер: Срджан Спасоевич
В ролях: Срджан Тодорович, Сергей Трифунович, Елена Гаврилович, Слободан Бестич, Катарина Жутич, Люка Миятович, Ана Сакич, Лэна Богданович, Миодраг Крчмарик, Ненад Херакович
Описание:
После выхода данной картины на экраны, она вызвала огромный общественный резонанс и неоднозначные отзывы как в самой Сербии, так и далеко за её пределами. В виду чрезмерной жестокости и натуралистичного показа изнасилований, некрофилии и педофилии, этот кровавый триллер во многих странах был запрещен. Плюс ко всему по ходу сюжета прослеживается мощный политический подтекст.

  • Актёр по имени Милош, "пенсионер" в области пopнoиндустрии, получает от знакомого режиссера Вукмира приглашение сняться в новом арт-хаусном пopнoфильмe для настоящих ценителей жанра, при этом ему сулят очень хороший гонорар. Милош уже давно "сбитый лётчик" и в принципе с прошлым завязал, но выбора у него нет, деньги предлагают немалые, нужно кормить семью, а ничего кроме занятия сексом на камеру в этой жизни актёр не умеет. Естественно, как говорится, огромных денег без тяжкой работы не бывает, так что совсем скоро главный герой замечает, что его новоиспечённая работа — отнюдь не обычное пopнo, а нечто более садистское и пугающее. Милош сильно пожалел о своем решении и пытается отказаться от грядущих съемок, однако безуспешно — работа запущена и обязательно должна быть закончена, даже если главный актёр этого не желает. Герой попадает в водоворот криминальных событий, всё больше утопая в насилии и убийственном садизме. И съемки будут продолжаться на площадке даже после смерти одного из героев будущего фильма для взрослых.

    Файл
    Качество: BDRip 1080p
    Контейнер: MKV
    Видео кодек: MPEG-4 AVC Video
    Аудио кодек: DTS / AC3
    Видео: 10.6 mb/s, 1920x800, 23.976 fps
    Аудио: Russian: AC3, 192 kb/s (2 ch)48,0 КГц
    Аудио: Serbian: DTS, 1510 kb/s (6 ch) 48,0 КГц
    скриншот   скриншот   скриншот  
    General
    Complete name : A.Serbian.Film.2010.Uncut.L1.BDRip.1080p.mkv
    Format : Matroska
    File size : 8.89 GiB
    Duration : 1h 43mn
    Overall bit rate : 12.3 Mbps
    Encoded date : UTC 2011-04-03 16:39:11
    Writing application : mkvmerge v3.4.0 ('Rapunzel') сборка от May 15 2010 09:38:20
    Writing library : libebml v0.8.0 + libmatroska v0.9.0
    Video
    ID : 1
    Format : AVC
    Format/Info : Advanced Video Codec
    Format profile : High@L4.0
    Format settings, CABAC : Yes
    Format settings, ReFrames : 5 frames
    Codec ID : V_MPEG4/ISO/AVC
    Duration : 1h 43mn
    Bit rate : 10.6 Mbps
    Width : 1 920 pixels
    Height : 800 pixels
    Display aspect ratio : 2.40:1
    Frame rate : 23.976 fps
    Color space : YUV
    Chroma subsampling : 4:2:0
    Bit depth : 8 bits
    Scan type : Progressive
    Bits/(Pixel*Frame) : 0.287
    Stream size : 7.48 GiB (84%)
    Title : A.Serbian.Film.2010.Uncut.1080p.BluRay.x264-SAiMORNY
    Writing library : x264 core 114 r1924 08d04a4
    Encoding settings : cabac=1 / ref=5 / deblock=1:0:0 / analyse=0x3:0x133 / me=umh / subme=7 / psy=1 / psy_rd=1.00:0.00 / mixed_ref=1 / me_range=16 / chroma_me=1 / trellis=1 / 8x8dct=1 / cqm=0 / deadzone=21,11 / fast_pskip=0 / chroma_qp_offset=-2 / threads=6 / sliced_threads=0 / nr=0 / decimate=1 / interlaced=0 / constrained_intra=0 / bframes=3 / b_pyramid=2 / b_adapt=2 / b_bias=0 / direct=3 / weightb=1 / open_gop=0 / weightp=2 / keyint=250 / keyint_min=23 / scenecut=40 / intra_refresh=0 / rc_lookahead=50 / rc=2pass / mbtree=1 / bitrate=10564 / ratetol=1.0 / qcomp=0.60 / qpmin=0 / qpmax=69 / qpstep=4 / cplxblur=20.0 / qblur=0.5 / ip_ratio=1.40 / aq=1:1.00
    Language : Serbian
    Audio #1
    ID : 2
    Format : AC-3
    Format/Info : Audio Coding 3
    Mode extension : CM (complete main)
    Codec ID : A_AC3
    Duration : 1h 43mn
    Bit rate mode : Constant
    Bit rate : 192 Kbps
    Channel(s) : 2 channels
    Channel positions : Front: L R
    Sampling rate : 48.0 KHz
    Bit depth : 16 bits
    Compression mode : Lossy
    Stream size : 143 MiB (2%)
    Title : Одноголосый Zamez
    Language : Russian
    Audio #2
    ID : 3
    Format : DTS
    Format/Info : Digital Theater Systems
    Codec ID : A_DTS
    Duration : 1h 43mn
    Bit rate mode : Constant
    Bit rate : 1 510 Kbps
    Channel(s) : 6 channels
    Channel positions : Front: L C R, Side: L R, LFE
    Sampling rate : 48.0 KHz
    Bit depth : 24 bits
    Compression mode : Lossy
    Stream size : 1.09 GiB (12%)
    Title : Оригинал
    Language : Serbian
    Text #1
    ID : 4
    Format : UTF-8
    Codec ID : S_TEXT/UTF8
    Codec ID/Info : UTF-8 Plain Text
    Title : Russian
    Language : Russian
    Text #2
    ID : 5
    Format : UTF-8
    Codec ID : S_TEXT/UTF8
    Codec ID/Info : UTF-8 Plain Text
    Title : Swedish
    Language : Swedish
    Text #3
    ID : 6
    Format : UTF-8
    Codec ID : S_TEXT/UTF8
    Codec ID/Info : UTF-8 Plain Text
    Title : Danish
    Language : Danish
    Text #4
    ID : 7
    Format : UTF-8
    Codec ID : S_TEXT/UTF8
    Codec ID/Info : UTF-8 Plain Text
    Title : Finish
    Language : Finnish
    Text #5
    ID : 8
    Format : UTF-8
    Codec ID : S_TEXT/UTF8
    Codec ID/Info : UTF-8 Plain Text
    Title : Norwegian
    Language : Norwegian



  • Скачать Сербский фильм через торрент http://4.firepic.org/4/images/2014-03/10/2obyc0ao3l60.jpg Скачать, смотреть онлайн Сербский фильм бесплантно в хорошем качестве Описание: После выхода данной картины на экраны, она вызвала огромный общественный резонанс и неоднозначные отзывы как в самой Сербии, так ... 9.8 10 15
    Info! Золотая раздача, скачанное не засчитывается.
    Торрент: Зарегистрирован [2014-03-10 14:30] · скачан: 408 раз
    Статус: √ проверено
    Размер: 8.89 GB
    Как cкачать? Как скачать Сербский фильм через торрент | UTorrent

    % Раздел Тема Автор DL S | L
    Фильмы 2010 [ 1.45 GB ] Сербский фильм / Srpski film / A Serbian Film | | BDRip Sherif Скачать
    1 | 0
    Фильмы 2010 [ 1.38 GB ] Сербский фильм / Srpski film / A Serbian Film / [UNCUT | | HDRip, VO _Яна_ Скачать
    1 | 0

    28-11-2019 20:33  


    Отключить вcю реклaмy на сайте, в т.ч. и в плеере онлайн просмотра!

    10-03-2014 15:08 Сербский фильм Скачать торрент  

    Фильм-ЖЕЕЕЕЕЕЕСТЬ!!!!!!!



    10-03-2014 15:17 Сербский фильм Скачать торрент  

    Слабонервным советую не смотреть...! много жестокости...ОООчень много.. Да и вообще - Зачем такое снимать? не понимаю.. :jest3:



    10-03-2014 16:28 Сербский фильм Скачать торрент  

    на другом ресурсе блочат. Будет релиз с меньшим объемом?



    10-03-2014 16:31 Сербский фильм Скачать торрент  

    10-03-2014 16:55 Сербский фильм Скачать торрент  

    классный скин с голенькой чиксой)))))



    11-03-2014 16:36 Сербский фильм Скачать торрент  

    Мерзость,а не фильм



    19-04-2014 12:23 Сербский фильм Скачать торрент  

    Фильм мягко говоря Gavnо, да это даже не фильм....
    Извращенцы долбаные как такой фильм вообще выпустили!!! :cansored:



      Дорогой пользователь! Огромная просьба, поблагодарите релизера, оцените раздачу и оставьте свои комментарий, если Вы скачали Сербский фильм через торрент бесплатно!!
      Комментировать посты могут только пользователи прошедшие не сложную регистрацию
      Показать сообщения:    


      Сербский фильм через торрент
      Скачать бесплатно Сербский фильм
      Сербский фильм скачать торрент
      Сербский фильм смотреть онлайн
      Cкачать фильм Сербский фильм бесплатно
      Сербский фильм скачать торрент в хорошем качестве
      Сербский фильм смотреть онлайн бесплатно в хорошем качестве
      Вы не можете начинать темы
      Вы не можете отвечать на сообщения
      Вы не можете редактировать свои сообщения
      Вы не можете удалять свои сообщения
      Вы не можете голосовать в опросах
      Вы не можете прикреплять файлы к сообщениям
      Вы можете скачивать файлы
      Сербский фильм / Srpski film / A Serbian Film [2010, Сербия, ужасы, триллер, BDRip 1080p] VO Zamez rus sub [UNCUT] смотреть онлайн, скачать торрент picoco.icu