Достать ножи: Стеклянная луковица

MVO

Добыча

Дубляж

Уэнсдэй

1 сезон

Тор

Дубляж

13 клиническая

1 сезон

Жестокая ночь

MVO

Одни из нас

1 сезон

Deluxe

pack

Рекомендуем

30

Пиратка

ВАЖНО

ВАЖНО

Ghostwire

Пиратка

jed

RePack

nioh2

RePack

RDR2

RePack

NEED FOR SPEED™ PAYBACK

RePack

скачать торрент

Кинопоиск HD

Острые козырьки 6 сезон

6 сезон

FAR CRY 6

RePack

скачать торрент

Лицензия

скачать торрент

MVO

1

1 сезон

скачать торрент

1 сезон

скачать торрент

Лицензия

  

Скала / The Rock (Майкл Бэй) [1996 г., боевик, триллер, приключения, BD-Remux, Дубляж]

Скала через торрент piratbit.org

Размер: 14.58 GB | Добавлен: 8 лет 10 мес. назад | Торрент скачан:97 раз
Смотреть онлайн | Скачать | Поддержите нас   

10-03-2014 19:23 Скала Скачать торрент  

Скала / The Rock
Год выпуска: 1996
Страна: США
Жанр: боевик, триллер, приключения,
Продолжительность: 02:16:29
Перевод: Дубляж
Субтитры: Английские

Режиссер: Майкл Бэй

В ролях: Шон Коннери, Николас Кейдж, Эд Харрис, Джон Спенсер, Дэвид Морс, Уильям Форсайт, Майкл Бьен, Ванесса Марсил, Джон С. МакГинли, Грегори Спорледер,

Описание: Генерал элитных диверсионных спецсил США, за плечами которого опыт чуть ли не всех войн планеты, похищает со своими лучшими подчиненными ракеты со смертоносным газом и захватывает в заложники туристов в бывшей тюрьме «Алькатрас», находящейся на острове в бухте Сан-Франциско.

Качество: BD-Remux
Формат: MKV
Видео кодек: H.264
Аудио кодек: AC3
Видео: MPEG-4 AVC, (1920x816),14 605 Кбит/с, 23976 кадра/сек
Аудио#1: AC-3, 6 ch, 384 kbps (Rus) 48.0 KHz Дубляж
скриншот   скриншот   скриншот  

Общее
Уникальный идентификатор : 199477835017681921104940020018323758937 (0x961208980EA5ECF4B852F76149319F59)
Полное имя : C:UsersDimazDesktopThe.Rock.1996.x264.1080p.mkv
Формат : Matroska
Версия формата : Version 4 / Version 2
Размер файла : 14,6 Гбайт
Продолжительность : 2 ч. 16 м.
Общий поток : 15,3 Мбит/сек
Название фильма : The Rock 1996 by Torrentirk.ru
Дата кодирования : UTC 2013-08-30 07:00:59
Программа кодирования : mkvmerge v6.3.0 ('You can't stop me!') built on Jun 28 2013 20:09:41
Библиотека кодирования : libebml v1.3.0 + libmatroska v1.4.0

Видео
Идентификатор : 1
Формат : AVC
Формат/Информация : Advanced Video Codec
Профиль формата : High@L4.1
Параметр CABAC формата : Да
Параметр ReFrames формата : 5 кадров
Идентификатор кодека : V_MPEG4/ISO/AVC
Продолжительность : 2 ч. 16 м.
Битрейт : 14,6 Мбит/сек
Ширина : 1920 пикселей
Высота : 816 пикселей
Соотношение сторон : 2,35:1
Режим частоты кадров : Постоянный
Частота кадров : 23,976 кадра/сек
Цветовое пространство : YUV
Субдискретизация насыщенности : 4:2:0
Битовая глубина : 8 бит
Тип развёртки : Прогрессивная
Бит/(Пиксели*Кадры) : 0.389
Размер потока : 13,9 Гбайт (95%)
Заголовок : The Rock 1996
Библиотека кодирования : x264 core 68 r1183M f21daff
Настройки программы : cabac=1 / ref=5 / deblock=1:-3:-3 / analyse=0x3:0x113 / me=umh / subme=9 / psy_rd=1.0:0.0 / mixed_ref=1 / me_range=64 / chroma_me=1 / trellis=2 / 8x8dct=1 / cqm=0 / deadzone=21,11 / chroma_qp_offset=-2 / threads=6 / nr=0 / decimate=1 / mbaff=0 / bframes=12 / b_pyramid=1 / b_adapt=2 / b_bias=0 / direct=2 / wpredb=1 / keyint=250 / keyint_min=25 / scenecut=40 / rc=crf / crf=20.0 / qcomp=0.80 / qpmin=10 / qpmax=51 / qpstep=4 / vbv_maxrate=50000 / vbv_bufsize=50000 / ip_ratio=1.40 / pb_ratio=1.30 / aq=1:0.80
Язык : English
Default : Да
Forced : Нет

Аудио
Идентификатор : 2
Формат : AC-3
Формат/Информация : Audio Coding 3
Расширение режима : CM (complete main)
Параметр Endianness формата : Big
Идентификатор кодека : A_AC3
Продолжительность : 2 ч. 16 м.
Вид битрейта : Постоянный
Битрейт : 384 Кбит/сек
Каналы : 6 каналов
Расположение каналов : Front: L C R, Side: L R, LFE
Частота : 48,0 КГц
Битовая глубина : 16 бит
Метод сжатия : С потерями
Размер потока : 375 Мбайт (3%)
Default : Нет
Forced : Нет

Текст
Идентификатор : 3
Формат : UTF-8
Идентификатор кодека : S_TEXT/UTF8
Идентификатор кодека/Информация : UTF-8 Plain Text
Заголовок : Английские
Язык : English
Default : Нет
Forced : Нет




Скачать Скала через торрент https://pic1.kartinco.top/images/61/j3x44.jpg Скачать, смотреть онлайн Скала бесплантно в хорошем качестве Описание: Генерал элитных диверсионных спецсил США, за плечами которого опыт чуть ли не всех войн планеты, похищает со своими лучшими ... 9.9 10 8
Info! Золотая раздача, скачанное не засчитывается.
Торрент: Зарегистрирован [2014-03-10 19:23] · скачан: 97 раз
Статус: √ проверено
Размер: 14.58 GB
Как cкачать? Как скачать Скала через торрент | UTorrent

% Раздел Тема Автор DL S | L
Фильмы [HD 720p, 1080p] (Хороший звук DUB, MVO) [ 23.51 GB ] Скала / The Rock | MVO | 1080p killermax2013 Скачать
1 | 0
Фильмы (Blu-ray, BD-Remux, HDDVD) [ 21.72 GB ] Скала / The Rock | AVO | Скала / The Rock (Майкл Бэй / Michael Bay Ворон Скачать
1 | 0
Фильмы [HD 720p, 1080p] (Хороший звук DUB, MVO) [ 10.34 GB ] Скала / The Rock | DUB | 720p от _denis_100 / NNNB _denis_100 Скачать
1 | 0
Видео для КПК и Смартфонов [ 1.08 GB ] Скала / The Rock | | HDRip mrDruid Скачать
1 | 0
Фильмы до 2000 г. [ 1.45 GB ] Скала / The Rock | MVO | HDRip -=Cherry=- Скачать
1 | 0
Фильмы [HD 720p, 1080p] (Хороший звук DUB, MVO) [ 15.5 GB ] Скала / The Rock | MVO + AVO + Original + Sub | 1080p Ворон Скачать
1 | 0
Фильмы до 2000 г. [ 2.91 GB ] Скала / The Rock | AVO | BDRip killermax2013 Скачать
1 | 0

28-11-2019 20:33  


Отключить вcю реклaмy на сайте, в т.ч. и в плеере онлайн просмотра!

    Дорогой пользователь! Огромная просьба, поблагодарите релизера, оцените раздачу и оставьте свои комментарий, если Вы скачали Скала через торрент бесплатно!!
    Комментировать посты могут только пользователи прошедшие не сложную регистрацию
    Показать сообщения:    


    Скала через торрент
    Скачать бесплатно Скала
    Скала скачать торрент
    Скала смотреть онлайн
    Cкачать фильм Скала бесплатно
    Скала скачать торрент в хорошем качестве
    Скала смотреть онлайн бесплатно в хорошем качестве
    Вы не можете начинать темы
    Вы не можете отвечать на сообщения
    Вы не можете редактировать свои сообщения
    Вы не можете удалять свои сообщения
    Вы не можете голосовать в опросах
    Вы не можете прикреплять файлы к сообщениям
    Вы можете скачивать файлы
    Скала / The Rock [1996 г., боевик, триллер, приключения, BD-Remux, Дубляж] смотреть онлайн, скачать торрент picoco.icu